Янголи Смерті / Satsuriku no Tenshi (12 серій і 4 ONA) (2018) 720р Ukr/Jap | Sub Ukr

Нові коментарі

Нова тема   Відповісти
Автор Повідомлення
vova.listik 
Частий відвідувач


З нами з: 26.11.16
Востаннє: 13.12.18
Повідомлень: 48

2018-09-03 22:27  
Янголи Смерті / Satsuriku no Tenshi (12 серій і 4 ONA) (2018) 720р Ukr/Jap | Sub Ukr

Янголи Смерті / Satsuriku no Tenshi (12 серій і 4 ONA) (2018) 720р Ukr/Jap | Sub Ukr


Жанр: Жахи, Пригоди, Психологія, Триллер
Країна: Японія



3,45 (81 голосів)

Кінокомпанія: J.C.Staff
Режисер: Судзукі Кентаро
Ролі озвучують: Окамото Нобухіко, Шiсuґa Хaрукa, Оцука Гочуу, Ісе Марія, Сакурай Такахіро, Фудзівара Нацумі

Сюжет:
Тринадцятирічна дівчинка на ім'я Рейчел прокидається в підвалі будівлі, не пам'ятаючи, як вона потрапила туди і не знаючи причин, через які опинилася в такому скрутному становищі.
Блукаючи по будівлі в пошуках виходу, дівчинка натрапляє на серійного вбивцю з косою в руках.
Як вони опинилися тут? Чи можливо вижити у цьому божевіллі? Де шукати вихід?


Тривалість: 1 серія: 25:00 (цілком серій: 16)
Перелік серій
Серія 01: Будь ласка, вбий мене
Серія 02: Твоя могила не тут
Серія 03: Клянуся Богом
Серія 04: У грішників немає права вибору
Серія 05: Вбивати мене може тільки Зак
Серія 06: Тобі ще рано помирати
Серія 07: Хто ти?
Серія 08: Так... Я — чудовисько
Серія 09. У цьому світі немає Бога
Серія 10. Нехай почнеться відьмин суд
Серія 11. Бо мій Бог — ти, Заку
Серія 12. Дізнайся про неї все
Серія 13. Я тобі не Бог
Серія 14. Поклянися, що помреш від моєї руки
Серія 15. Клятву не вкрасти
Серія 16. Припини плакати і посміхнися
Якість:
Відео:
кодек:
розмір кадру: 1280 х 720
бітрейт: 1 948 кб/с

Аудіо:
мова: Українська
переклад: багатоголосий закадровий
кодек: Vorbis 2.0
бітрейт: 256 кб/с

Аудіо:
мова: Японська
переклад: Оригінал
кодек: 2.0
бітрейт: 128 кб/с

Субтитри:
мова: Українська, Повні (Aspid)
тип: програмні, м'які, внутрішні
формат: *.

Субтитри:
мова: Українська, написи та пояснення (Aspid)
тип: програмні, м'які, внутрішні
формат: *.

Перклав: Aspid
Ролі озвучували: Melorin, Stayler, Амнезія, Назюнчик, Trina_D, Artymko, Gwean
Робота зі звуком: Stayler

Джерело озвучення:
Info
General
Unique ID : 262065197975920839842748023161975329831 (0xC527EBD4D5D8AB2DB233CC9AE295D427)
Complete name : E:\1Янголи\00\[Sub Aspid] Satsuriku no Tenshi 01. Будь ласка, вбий мене [VRdub] (BD 720p ААС).
Format :
Format version : Version 4 / Version 2
File size : 384 MiB
Duration : 23 min 42 s
Overall bit rate mode : Variable
Overall bit rate : 2 265 kb/s
Encoded date : UTC 2018-12-08 19:03:20
Writing application : v25.0.0 ('Prog Noir') 64-bit
Writing library : libebml v1.3.6 + v1.4.9
Attachments : OpenSans-Semibold.ttf

Video
ID : 1
Format : AVC
Format/Info : Advanced Video Codec
Format profile : [email protected]
Format settings : CABAC / 6 Ref Frames
Format settings, CABAC : Yes
Format settings, ReFrames : 6 frames
Codec ID : V_MPEG4/ISO/AVC
Duration : 23 min 40 s
Bit rate : 1 948 kb/s
Width : 1 280 pixels
Height : 720 pixels
Display aspect ratio : 16:9
Frame rate mode : Constant
Frame rate : 23.976 (24000/1001) FPS
Color space : YUV
Chroma subsampling : 4:2:0
Bit depth : 8 bits
Scan type : Progressive
Bits/(Pixel*Frame) : 0.088
Stream size : 330 MiB (86%)
Writing library : core 142
Encoding settings : cabac=1 / ref=6 / deblock=1:1:1 / analyse=0x3:0x113 / me=umh / subme=8 / psy=1 / psy_rd=0.40:0.00 / mixed_ref=1 / me_range=16 / chroma_me=1 / trellis=1 / 8x8dct=1 / cqm=0 / deadzone=21,11 / fast_pskip=1 / chroma_qp_offset=-2 / threads=10 / lookahead_threads=1 / sliced_threads=0 / nr=0 / decimate=1 / interlaced=0 / bluray_compat=0 / constrained_intra=0 / bframes=3 / b_pyramid=2 / b_adapt=2 / b_bias=0 / direct=3 / weightb=1 / open_gop=0 / weightp=2 / keyint=48 / keyint_min=24 / scenecut=40 / intra_refresh=0 / rc_lookahead=48 / rc=crf / mbtree=1 / crf=15.0 / qcomp=0.60 / qpmin=0 / qpmax=69 / qpstep=4 / vbv_maxrate=4000 / vbv_bufsize=6000 / crf_max=0.0 / nal_hrd=none / filler=0 / ip_ratio=1.40 / aq=1:0.60
Default : Yes
Forced : No

Audio #1
ID : 2
Format : Vorbis
Format settings, Floor : 1
Codec ID : A_VORBIS
Duration : 23 min 42 s
Bit rate mode : Variable
Bit rate : 256 kb/s
Channel(s) : 2 channels
Sampling rate : 48.0 kHz
Frame rate : 71.395 FPS (672 SPF)
Compression mode : Lossy
Delay relative to video : -83 ms
Stream size : 31.7 MiB (8%)
Title : Українська (VR Dub) (Stayler, Амнезія, Назюнчик, Melorin, Trina_D, Artymko, Gwean)
Writing application : REAPER
Writing library : libVorbis (Everywhere) (20100325 (Everywhere))
Language : Ukrainian
Default : Yes
Forced : Yes

Audio #2
ID : 3
Format : LC
Format/Info : Advanced Audio Codec Low Complexity
Codec ID : A_AAC-2
Duration : 23 min 40 s
Bit rate : 128 kb/s
Channel(s) : 2 channels
Channel layout : L R
Sampling rate : 44.1 kHz
Frame rate : 43.066 FPS (1024 SPF)
Compression mode : Lossy
Delay relative to video : -83 ms
Stream size : 21.7 MiB (6%)
Title : Японська
Language : Japanese
Default : No
Forced : No

Text #1
ID : 4
Format :
Codec ID : S_TEXT/
Codec ID/Info : Advanced Sub Station Alpha
Duration : 21 min 13 s
Bit rate : 2 b/s
Count of elements : 8
Compression mode : Lossless
Stream size : 365 Bytes (0%)
Title : Написи (Aspid)
Language : Ukrainian
Default : Yes
Forced : Yes

Text #2
ID : 5
Format :
Codec ID : S_TEXT/
Codec ID/Info : Advanced Sub Station Alpha
Duration : 23 min 25 s
Bit rate : 93 b/s
Count of elements : 267
Compression mode : Lossless
Stream size : 16.0 KiB (0%)
Title : Повні (Aspid)
Language : Ukrainian
Default : No
Forced : No
Скріншоти





Джерело:
Особиста оцінка: 10 - без зайвих вагань рекомендую всім! Happy

Торрент оновлено! Додано усі серії і ONA. Попередні серії замінені.
Додана оригінальна аудіодоріжка і Українські субтитри! Реліз завершено!


Авторський реліз (завантажувати можна без реєстрації)
 Трекер:    Зареєстрований   

Завантажити / скачати аніме українською



відео для новачків



 Зареєстрований:   2018-12-08 22:53
 Розмір:   6.35 GB 
 Оцінка аніме:   9.4/10 (Голосів: 5)
   
vova.listik 
Частий відвідувач


З нами з: 26.11.16
Востаннє: 13.12.18
Повідомлень: 48

2018-09-03 22:46  
Додам решту готових серій взавтра після завтра (але всоодно до цього ніхто не встигне скачати те що є).!)
vova.listik 
Частий відвідувач


З нами з: 26.11.16
Востаннє: 13.12.18
Повідомлень: 48

2018-09-04 22:08  
Додана 3 серія.
Ліхтарник 
VIP


З нами з: 16.09.14
Востаннє: 13.12.18
Повідомлень: 1204

2018-09-05 01:34  
vova.listik
Апостроф у слові "з'явіться" забули!

vova.listik 
Частий відвідувач


З нами з: 26.11.16
Востаннє: 13.12.18
Повідомлень: 48

2018-09-05 06:55  
Ліхтарник
Ні так має бути (це показує наскільки сильно потрібна грамотно людина).

vova.listik 
Частий відвідувач


З нами з: 26.11.16
Востаннє: 13.12.18
Повідомлень: 48

2018-09-05 22:10  
Додана 4, 5 серія.
AniSky 
Новенький


З нами з: 13.01.17
Востаннє: 13.12.18
Повідомлень: 12

2018-10-11 14:17  
Роздачі, будь ласка!
Дякую!

vova.listik 
Частий відвідувач


З нами з: 26.11.16
Востаннє: 13.12.18
Повідомлень: 48

2018-12-08 23:02  
Торрент оновлено! Додано усі серії і ONA. Попередні серії замінені.
Додана оригінальна аудіодоріжка і Українські субтитри! Реліз завершено!

Ваш часовий пояс: GMT + 2 Години

Нова тема   Відповісти