Задуха / Choke (2008) 1080p Ukr/Eng | Sub Eng

Нові коментарі

Нова тема   Відповісти
Автор Повідомлення
IronBee 
Поважний учасник


З нами з: 08.02.10
Востаннє: 21.10.18
Повідомлень: 208

2018-09-03 21:50  
Задуха / Choke (2008) 1080p Ukr/Eng | Sub Eng

Задуха / Choke (2008) 1080p Ukr/Eng | Sub Eng


Жанр: драма, комедія
Країна: США



Кінокомпанія: Fox Searchlight Pictures, ATO Pictures, Contrafilm, Aramid Entertainment Fund, Dune Entertainment III, Choke Film
Режисер: Кларк Ґреґґ (Clark Gregg)
Актори: Сем Роквелл (Sam Rockwell), Анжеліка Г'юстон (Anjelica Huston), Келлі МакДональд (Kelly Macdonald), Паз Де Ла Гуерта (Paz de la Huerta), Бред Віллья Генке (Brad William Henke), Джона Бобо (Jonah Bobo) та інші.

Сюжет:
Сексуально залежний працівник тематичного парку Віктор Манчіні вигадує ціле хитросплетіння шахрайств, аби назбирати грошей для лікування своєї матері, котра страждає на хворобу Альцгеймера.
"Задуха" - екранізація книги скандального письменника Чака Поланіка ("Бійцівський клуб"). Картина, яка зображає життя, кохання, секс і людство страхітливо свіжим і сміховинним образом.


Тривалість: 01:32:09
Якість: 1080p
Відео:
розмір кадру: 1914х1038
бітрейт: 10,8 Mб/с

Аудіо # 1:
мова: українська
переклад: двоголосий закадровий
кодек: 2.0
бітрейт: 192 кб/с

Аудіо # 2:
мова: англійська
переклад: оригінал
кодек: 5.1
бітрейт: 640 кб/с

Субтитри:
мова: англійська
тип: програмні (м'які)
формат: *.srt
Info
General
Unique ID : 62041282719594722304305042135874542767 (0x2EACB76727F1EEE0B266A08D26541CAF)
Complete name : E:\Films\Задуха Choke (2008) 1080p UkrEng Sub Eng[Hurtom].
Format :
Format version : Version 4 / Version 2
File size : 7.46 GiB
Duration : 1 h 32 min
Overall bit rate : 11.6 Mb/s
Movie name : Удушье.(2008)..1080p.[envy]
Encoded date : UTC 2018-09-03 17:33:40
Writing application : v26.0.0 ('In The Game') 64-bit
Writing library : libebml v1.3.6 + v1.4.9

Video
ID : 1
Format : AVC
Format/Info : Advanced Video Codec
Format profile : [email protected]
Format settings : CABAC / 4 Ref Frames
Format settings, CABAC : Yes
Format settings, ReFrames : 4 frames
Codec ID : V_MPEG4/ISO/AVC
Duration : 1 h 31 min
Bit rate : 10.8 Mb/s
Width : 1 914 pixels
Height : 1 038 pixels
Display aspect ratio : 1.85:1
Frame rate mode : Constant
Frame rate : 23.976 (24000/1001) FPS
Color space : YUV
Chroma subsampling : 4:2:0
Bit depth : 8 bits
Scan type : Progressive
Bits/(Pixel*Frame) : 0.227
Stream size : 6.92 GiB (93%)
Writing library : core 140 r2377 1ca7bb9
Encoding settings : cabac=1 / ref=4 / deblock=1:-3:-3 / analyse=0x3:0x133 / me=umh / subme=11 / psy=1 / psy_rd=1.00:0.00 / mixed_ref=1 / me_range=48 / chroma_me=1 / trellis=2 / 8x8dct=1 / cqm=0 / deadzone=21,11 / fast_pskip=0 / chroma_qp_offset=-2 / threads=12 / lookahead_threads=2 / sliced_threads=0 / nr=0 / decimate=1 / interlaced=0 / bluray_compat=0 / constrained_intra=0 / bframes=7 / b_pyramid=2 / b_adapt=2 / b_bias=0 / direct=3 / weightb=1 / open_gop=0 / weightp=2 / keyint=240 / keyint_min=23 / scenecut=40 / intra_refresh=0 / rc=2pass / mbtree=0 / bitrate=10825 / ratetol=2.0 / qcomp=0.60 / qpmin=0 / qpmax=69 / qpstep=4 / cplxblur=20.0 / qblur=0.5 / ip_ratio=1.40 / pb_ratio=1.30 / aq=2:0.80
Language : English
Default : Yes
Forced : No

Audio #1
ID : 2
Format : AC-3
Format/Info : Audio Coding 3
Commercial name : Dolby Digital
Codec ID : A_AC3
Duration : 1 h 32 min
Bit rate mode : Constant
Bit rate : 192 kb/s
Channel(s) : 2 channels
Channel positions : Front: L R
Sampling rate : 48.0 kHz
Frame rate : 31.250 FPS (1536 SPF)
Bit depth : 16 bits
Compression mode : Lossy
Stream size : 127 MiB (2%)
Title : 2.0 192 кб/с двоголосий закадровий
Language : Ukrainian
Service kind : Complete Main
Default : Yes
Forced : No

Audio #2
ID : 3
Format : AC-3
Format/Info : Audio Coding 3
Commercial name : Dolby Digital
Codec ID : A_AC3
Duration : 1 h 32 min
Bit rate mode : Constant
Bit rate : 640 kb/s
Channel(s) : 6 channels
Channel positions : Front: L C R, Side: L R, LFE
Sampling rate : 48.0 kHz
Frame rate : 31.250 FPS (1536 SPF)
Bit depth : 16 bits
Compression mode : Lossy
Stream size : 422 MiB (6%)
Title : Eng
Language : English
Service kind : Complete Main
Default : No
Forced : No

Text
ID : 4
Format : UTF-8
Codec ID : S_TEXT/UTF8
Codec ID/Info : UTF-8 Plain Text
Duration : 1 h 29 min
Bit rate : 84 b/s
Count of elements : 1480
Stream size : 55.7 KiB (0%)
Title : eng full
Language : English
Default : No
Forced : No

Menu
00:00:00.000 : :Chapter 01
00:03:36.506 : :Chapter 02
00:09:04.210 : :Chapter 03
00:15:49.281 : :Chapter 04
00:17:58.118 : :Chapter 05
00:20:48.955 : :Chapter 06
00:23:53.515 : :Chapter 07
00:27:56.590 : :Chapter 08
00:33:08.736 : :Chapter 09
00:35:04.560 : :Chapter 10
00:36:56.422 : :Chapter 11
00:40:55.744 : :Chapter 12
00:43:25.268 : :Chapter 13
00:47:45.571 : :Chapter 14
00:51:32.422 : :Chapter 15
00:57:05.922 : :Chapter 16
00:59:04.457 : :Chapter 17
01:04:40.876 : :Chapter 18
01:09:05.474 : :Chapter 19
01:13:02.669 : :Chapter 20
01:15:08.587 : :Chapter 21
01:18:47.930 : :Chapter 22
01:21:41.104 : :Chapter 23
01:26:35.314 : :Chapter 24
01:31:46.459 : :Chapter 25
Скріншоти




Джерело: &
Особиста оцінка: 0 - не дивився
Українська звукова доріжка та постер - mrdavis.


 Трекер:    Зареєстрований   

Завантажити / скачати фільм українською



відео для новачків



 Зареєстрований:   2018-09-03 21:50
 Розмір:   7.46 GB 
 Оцінка фільму:   6.4/10 (Голосів: 5)
   
Інші релізи
   Задуха / Choke (2008) AVC Ukr/Eng | Sub Eng staf777  1 / 0   2.65 GB   2018-08-27 17:46 
   Задуха / Choke (2008) 720p Ukr/Eng | Sub Eng Dim-ON  0 / 1   4.5 GB   2011-12-25 13:02 
   Задуха / Choke (2008) Ukr/Eng mrdavis  2 / 0   1.37 GB   2009-06-30 23:26 
igor911 
Відео Гуртом
Відео Гуртом


З нами з: 18.01.08
Востаннє: 22.10.18
Повідомлень: 11263

2018-09-03 23:30  
IronBee написано:
Movie name : Удушье.(2008)..1080p.[envy]

Вкотре прошу відповідально та уважно ставитися до заповнення тегів при муксуванні файлу релізу (вкладка "Вихід" MKVToolNix'а, поле "Заголовок файлу")

IronBee 
Поважний учасник


З нами з: 08.02.10
Востаннє: 21.10.18
Повідомлень: 208

2018-09-04 12:03  
ok
reiser44 
Свій


З нами з: 12.11.14
Востаннє: 21.10.18
Повідомлень: 66

2018-09-06 22:08  
IronBee написано:
ok

- Ну? І коли буде виправлено?

igor911 
Відео Гуртом
Відео Гуртом


З нами з: 18.01.08
Востаннє: 22.10.18
Повідомлень: 11263

2018-09-06 22:10  
reiser44 написано:
- Ну? І коли буде виправлено?

сподіваюсь, в майбутніх релізах. Цей вже не потрібно чіпати. Хіба може як з'явиться ще якась укр.озвучка.

Ваш часовий пояс: GMT + 2 Години

Нова тема   Відповісти