Кешбек / Решта / Cashback (2006) 1080p Ukr/Eng | Sub Eng

Нові коментарі

Нова тема   Відповісти
Останній раз роздавалося T-Mon (2018-10-19)
Автор Повідомлення
IronBee 
Поважний учасник


З нами з: 08.02.10
Востаннє: 17.10.18
Повідомлень: 207

2018-09-03 20:25  
Кешбек / Решта / Cashback (2006) 1080p Ukr/Eng | Sub Eng

Кешбек / Решта / Cashback (2006) 1080p Ukr/Eng | Sub Eng


Жанр: мелодрама, комедія, еротика
Країна: Великобританія



Кінокомпанія: Left Turn Films, Lipsync Productions, MEDIA Programme of the European Union, Ugly Duckling Films
Режисер: Шон Елліс
Актори: Шон Біггерстаф, Емілія Фокс, Стюарт Гудвін, Майкл Лембурн, Майкл Діксон, Мішель Райан, Еріка Елліс та інші.

Сюжет:
Переживаючи хворобливе розставання з коханою, Бен впадає в безсоння. У вільні 8 годин він починає працювати в нічну зміну в місцевому супермаркеті, де головним завданням обслуговуючого персоналу є «вбити час». Несподівано Бен виявляє в собі незвичайну здатність зупиняти час, що дає поштовх його художньому таланту.


Тривалість: 01:42:03
Якість:
Відео:
кодек:
розмір кадру: 1920 х 818
бітрейт: 16.0 Mб/с

Аудіо # 1:
мова: українська
переклад: багатоголосий закадровий | AniUA
кодек: 5.1
бітрейт: 1506 кб/с

Аудіо # 2:
мова: українська
переклад: багатоголосий закадровий | AniUA
кодек: 5.1
бітрейт: 448 кб/с

Аудіо # 3:
мова: англійська
переклад: оригінал
кодек: 5.1
бітрейт: 1509 кб/с

Субтитри # 1-2:
мова: англійська (повні, SDH)
тип: програмні (м'які)
формат: *.srt
Info
General
Unique ID : 122878401630179995827901053253923332354 (0x5C7184F246053E4D235B637BDEBB6102)
Complete name : E:\Films\Кешбек Решта Cashback (2006) 1080p UkrEng Sub Eng[Hurtom].
Format :
Format version : Version 4 / Version 2
File size : 13.9 GiB
Duration : 1 h 42 min
Overall bit rate : 19.5 Mb/s
Encoded date : UTC 2018-09-01 20:30:31
Writing application : v26.0.0 ('In The Game') 64-bit
Writing library : libebml v1.3.6 + v1.4.9

Video
ID : 1
Format : AVC
Format/Info : Advanced Video Codec
Format profile : [email protected]
Format settings : CABAC / 5 Ref Frames
Format settings, CABAC : Yes
Format settings, ReFrames : 5 frames
Codec ID : V_MPEG4/ISO/AVC
Duration : 1 h 42 min
Bit rate : 16.0 Mb/s
Width : 1 920 pixels
Height : 818 pixels
Display aspect ratio : 2.35:1
Frame rate mode : Constant
Frame rate : 23.976 (24000/1001) FPS
Color space : YUV
Chroma subsampling : 4:2:0
Bit depth : 8 bits
Scan type : Progressive
Bits/(Pixel*Frame) : 0.425
Stream size : 11.4 GiB (82%)
Title : Cashback (2006)
Writing library : core 140 r2377kMod 1ca7bb9
Encoding settings : cabac=1 / ref=5 / deblock=1:-3:-3 / analyse=0x3:0x133 / me=umh / subme=11 / psy=1 / fade_compensate=0.00 / psy_rd=1.10:0.00 / mixed_ref=1 / me_range=64 / chroma_me=1 / trellis=2 / 8x8dct=1 / cqm=0 / deadzone=21,11 / fast_pskip=0 / chroma_qp_offset=-2 / threads=12 / lookahead_threads=2 / sliced_threads=0 / nr=0 / decimate=0 / interlaced=0 / bluray_compat=0 / constrained_intra=0 / fgo=0 / bframes=7 / b_pyramid=2 / b_adapt=2 / b_bias=0 / direct=3 / weightb=1 / open_gop=0 / weightp=2 / keyint=250 / keyint_min=23 / scenecut=40 / intra_refresh=0 / rc_lookahead=40 / rc=crf / mbtree=0 / crf=17.0000 / qcomp=0.60 / qpmin=0 / qpmax=69 / qpstep=4 / vbv_maxrate=50000 / vbv_bufsize=62500 / crf_max=0.0 / nal_hrd=none / filler=0 / ip_ratio=1.40 / pb_ratio=1.30 / aq=2:0.70
Language : English
Default : Yes
Forced : No
Color range : Limited
Color primaries : BT.709
Transfer characteristics : BT.709
Matrix coefficients : BT.709

Audio #1
ID : 2
Format :
Format/Info : Digital Theater Systems
Codec ID : A_DTS
Duration : 1 h 42 min
Bit rate mode : Constant
Bit rate : 1 506 kb/s
Channel(s) : 6 channels
Channel positions : Front: L C R, Side: L R, LFE
Sampling rate : 48.0 kHz
Frame rate : 93.750 FPS (512 SPF)
Bit depth : 16 bits
Compression mode : Lossy
Stream size : 1.07 GiB (8%)
Title : 5.1 1509 кб/с багатоголосий закадровий | AniUA
Language : Ukrainian
Default : Yes
Forced : No

Audio #2
ID : 3
Format : AC-3
Format/Info : Audio Coding 3
Commercial name : Dolby Digital
Codec ID : A_AC3
Duration : 1 h 42 min
Bit rate mode : Constant
Bit rate : 448 kb/s
Channel(s) : 6 channels
Channel positions : Front: L C R, Side: L R, LFE
Sampling rate : 48.0 kHz
Frame rate : 31.250 FPS (1536 SPF)
Bit depth : 16 bits
Compression mode : Lossy
Stream size : 327 MiB (2%)
Title : 5.1 448 кбіт/сек. багатоголосий закадровий | AniUA
Language : Ukrainian
Service kind : Complete Main
Default : No
Forced : No

Audio #3
ID : 4
Format :
Format/Info : Digital Theater Systems
Codec ID : A_DTS
Duration : 1 h 42 min
Bit rate mode : Constant
Bit rate : 1 509 kb/s
Channel(s) : 6 channels
Channel positions : Front: L C R, Side: L R, LFE
Sampling rate : 48.0 kHz
Frame rate : 93.750 FPS (512 SPF)
Bit depth : 24 bits
Compression mode : Lossy
Stream size : 1.08 GiB (8%)
Title : Original
Language : English
Default : No
Forced : No

Text #1
ID : 5
Format : UTF-8
Codec ID : S_TEXT/UTF8
Codec ID/Info : UTF-8 Plain Text
Duration : 1 h 37 min
Bit rate : 50 b/s
Count of elements : 1054
Stream size : 36.0 KiB (0%)
Title : English
Language : English
Default : No
Forced : No

Text #2
ID : 6
Format : UTF-8
Codec ID : S_TEXT/UTF8
Codec ID/Info : UTF-8 Plain Text
Duration : 1 h 37 min
Bit rate : 53 b/s
Count of elements : 1141
Stream size : 38.0 KiB (0%)
Title : English-SDH
Language : English
Default : No
Forced : No

Menu
00:00:00.000 : en:00:00:00.000
00:01:20.747 : en:00:01:20.747
00:04:24.639 : en:00:04:24.639
00:10:39.973 : en:00:10:39.973
00:13:39.152 : en:00:13:39.152
00:16:52.678 : en:00:16:52.678
00:21:46.305 : en:00:21:46.305
00:25:01.500 : en:00:25:01.500
00:29:24.763 : en:00:29:24.763
00:32:43.503 : en:00:32:43.503
00:34:31.236 : en:00:34:31.236
00:40:06.362 : en:00:40:06.362
00:44:31.419 : en:00:44:31.419
00:47:32.308 : en:00:47:32.308
00:55:26.823 : en:00:55:26.823
00:58:53.780 : en:00:58:53.780
01:03:36.229 : en:01:03:36.229
01:11:02.467 : en:01:11:02.467
01:13:21.355 : en:01:13:21.355
01:17:19.802 : en:01:17:19.802
01:21:34.973 : en:01:21:34.973
01:28:49.908 : en:01:28:49.908
01:30:38.683 : en:01:30:38.683
01:35:57.752 : en:01:35:57.752
Скріншоти





Джерело: &
Особиста оцінка: 0 - не дивився


Авторський реліз (завантажувати можна без реєстрації)
 Трекер:    Зареєстрований   

Завантажити / скачати фільм українською



відео для новачків



 Зареєстрований:   2018-09-03 20:25
 Розмір:   13.88 GB 
 Оцінка фільму:   9/10 (Голосів: 10)
   
Інші релізи
   Кешбек / Решта / Cashback (2006) mini 1080p H.265 Ukr/Eng | Sub Eng -Star-Lord-  8 / 0   3.52 GB   2018-08-25 01:46 
   Кешбек / Решта / Cashback (2006) Ukr/Eng Arch Enemy  16 / 0   2.18 GB   2018-08-24 18:55 
   Кешбек / Решта / Cashback (2006) 720p Ukr/Eng | Sub Eng Arch Enemy  12 / 0   7.58 GB   2018-08-21 19:20 
respect14 
VIP


З нами з: 26.01.11
Востаннє: 19.10.18
Повідомлень: 539

2018-09-03 23:28  
Несмішна комедія... та й еротики мало)
Ваш часовий пояс: GMT + 2 Години

Нова тема   Відповісти