Ти квач! / Tag (2018) Remux 1080p Ukr/Eng | Sub Eng

Нові коментарі

Нова тема   Відповісти
Автор Повідомлення
IronBee 
Поважний учасник


З нами з: 08.02.10
Востаннє: 19.12.18
Повідомлень: 211

2018-09-03 19:05  
Ти квач! / Tag (2018) Remux 1080p Ukr/Eng | Sub Eng

Ти квач! / Tag (2018) Remux 1080p Ukr/Eng | Sub Eng


Жанр: комедія
Країна: США



Кінокомпанія: Broken Road Productions, New Line Cinema
Режисер: Джефф Томсіч
Актори: Ед Гелмс, Джеремі Реннер, Джон Гемм, Джейк Джонсон, Геннібал Бересс, Аннабелль Волліс, Айла Фішер, Рашіда Джонс, Ліл Релл, Нора Данн

Сюжет:
Щороку п’ятеро університетських друзів збираються, щоб грати в «квача без правил», ризикуючи своїми шиями, роботою та стосунками. Щоб перемогти, збивши супротивника з ніг з криком «Ти квач!». Цього року гра співпадає з весіллям одного з непереможних гравців, тож він може стати легкою мішенню. Але хлопець знає, що друзі йдуть по його душу і…він готовий. Історія базується на реальних подіях, і показує, як далеко деякі чоловіки можуть зайти заради перемоги.


Тривалість: 01:40:33
Якість: Remux
Відео:
кодек:
розмір кадру: 1920 х 1080
бітрейт: 34.1 Mб/с

Аудіо # 1:
мова: українська | LINE
переклад: професійний дубльований
кодек: 2.0
бітрейт: 192 кб/с

Аудіо # 2:
мова: англійська
переклад: оригінал
кодек: -HD MA 5.1
бітрейт: 3571 кб/с

Субтитри # 1-3:
мова: англійська (повні, SDH, SDH Colored)
тип: програмні (м'які)
формат: *.srt
Info
General
Unique ID : 135450597371347762282367853163675525184 (0x65E6D60DAE70F65254DEBC089DCA2040)
Complete name : E:\Films\Ти квач! Tag (2018) Remux 1080p UkrEng Sub[Hurtom] Eng.
Format :
Format version : Version 4 / Version 2
File size : 26.6 GiB
Duration : 1 h 40 min
Overall bit rate mode : Variable
Overall bit rate : 37.9 Mb/s
Movie name : Tag 2018 OT werecut PROD.
Encoded date : UTC 2018-09-01 17:44:36
Writing application : v25.0.0 ('Prog Noir') 64-bit
Writing library : libebml v1.3.6 + v1.4.9

Video
ID : 1
Format : AVC
Format/Info : Advanced Video Codec
Format profile : [email protected]
Format settings : CABAC / 4 Ref Frames
Format settings, CABAC : Yes
Format settings, ReFrames : 4 frames
Codec ID : V_MPEG4/ISO/AVC
Duration : 1 h 40 min
Bit rate mode : Variable
Bit rate : 34.1 Mb/s
Maximum bit rate : 36.0 Mb/s
Width : 1 920 pixels
Height : 1 080 pixels
Display aspect ratio : 16:9
Frame rate mode : Constant
Frame rate : 23.976 (24000/1001) FPS
Color space : YUV
Chroma subsampling : 4:2:0
Bit depth : 8 bits
Scan type : Progressive
Bits/(Pixel*Frame) : 0.686
Stream size : 23.9 GiB (90%)
Language : English
Default : No
Forced : No

Audio #1
ID : 2
Format : AC-3
Format/Info : Audio Coding 3
Commercial name : Dolby Digital
Codec ID : A_AC3
Duration : 1 h 40 min
Bit rate mode : Constant
Bit rate : 192 kb/s
Channel(s) : 2 channels
Channel positions : Front: L R
Sampling rate : 48.0 kHz
Frame rate : 31.250 FPS (1536 SPF)
Bit depth : 16 bits
Compression mode : Lossy
Stream size : 138 MiB (1%)
Title : 2.0 192 кб/с професійний дубльований (Line In)
Language : Ukrainian
Service kind : Complete Main
Default : Yes
Forced : No

Audio #2
ID : 3
Format :
Format/Info : Digital Theater Systems
Format profile : MA / Core
Codec ID : A_DTS
Duration : 1 h 40 min
Bit rate mode : Variable / Constant
Bit rate : 3 571 kb/s / 1 509 kb/s
Channel(s) : 6 channels
Channel positions : Front: L C R, Side: L R, LFE
Sampling rate : 48.0 kHz
Frame rate : 93.750 FPS (512 SPF)
Bit depth : 24 bits
Compression mode : Lossless / Lossy
Stream size : 2.51 GiB (9%)
Language : English
Default : No
Forced : No

Text #1
ID : 4
Format : UTF-8
Codec ID : S_TEXT/UTF8
Codec ID/Info : UTF-8 Plain Text
Duration : 1 h 39 min
Bit rate : 91 b/s
Count of elements : 1965
Stream size : 66.9 KiB (0%)
Language : English
Default : No
Forced : No

Text #2
ID : 5
Format : UTF-8
Codec ID : S_TEXT/UTF8
Codec ID/Info : UTF-8 Plain Text
Duration : 1 h 40 min
Bit rate : 99 b/s
Count of elements : 2143
Stream size : 73.0 KiB (0%)
Title : SDH
Language : English
Default : No
Forced : No

Text #3
ID : 6
Format : UTF-8
Codec ID : S_TEXT/UTF8
Codec ID/Info : UTF-8 Plain Text
Duration : 1 h 40 min
Bit rate : 117 b/s
Count of elements : 2143
Stream size : 86.2 KiB (0%)
Title : SDH Colored
Language : English
Default : No
Forced : No

Menu
00:00:00.000 : en:Chapter 01
00:09:24.230 : en:Chapter 02
00:17:04.481 : en:Chapter 03
00:28:18.863 : en:Chapter 04
00:36:56.214 : en:Chapter 05
00:46:16.398 : en:Chapter 06
00:56:28.259 : en:Chapter 07
01:06:09.465 : en:Chapter 08
01:18:02.719 : en:Chapter 09
01:26:30.101 : en:Chapter 10
01:35:55.958 : en:Chapter 11
01:40:33.652 : en:Chapter 12
Скріншоти




Подяка пану Hanway за синхронізацію.

Джерело: &
Особиста оцінка: 8 - мені сподобалося


Золотий реліз (завантажене не впливає на рейтинг)
 Трекер:    Зареєстрований   

Завантажити / скачати фільм українською



відео для новачків



 Зареєстрований:   2018-09-03 19:05
 Розмір:   26.59 GB 
 Оцінка фільму:   9.3/10 (Голосів: 7)
   
Інші релізи
   Ти квач! / Tag (2018) AVC Ukr/Eng | Sub Eng uafilm.tv  26 / 4   1.66 GB   2018-10-03 23:32 
   Ти квач! / Tag (2018) Ukr/Eng antik_2008  42 / 0   1.55 GB   2018-09-16 21:12 
   Ти квач! / Tag (2018) 1080p Ukr/Eng | Sub Eng staf777  23 / 0   8.66 GB   2018-09-10 11:46 
   Ти квач! / Tag (2018) 1080p H.265 Ukr/Eng | Sub Eng -Star-Lord-  7 / 0   3.87 GB   2018-09-10 09:55 
   Ти квач! / Tag (2018) 720p Ukr/Eng | Sub Eng 11FrYkT  28 / 0   3.56 GB   2018-09-08 17:21 
11FrYkT 
Модератор відео


З нами з: 20.02.11
Востаннє: 19.12.18
Повідомлень: 5283

2018-09-04 12:19  
IronBee написано:
мова: українська | LINE

Скоро має бути тюнс, зачекали б з релізом щоб не оновлюватися

IronBee 
Поважний учасник


З нами з: 08.02.10
Востаннє: 19.12.18
Повідомлень: 211

2018-09-05 14:14  
Закортіло подивитися з друзями)
Ваш часовий пояс: GMT + 2 Години

Нова тема   Відповісти