Новачок / The Rookie (1990) 1080p Ukr/Eng | Sub Eng

Нові коментарі

Нова тема   Відповісти
Автор Повідомлення
Anonymous 







2018-09-03 20:05  
Новачок / The Rookie (1990) 1080p Ukr/Eng | Sub Eng

Новачок / The Rookie (1990) 1080p Ukr/Eng | Sub Eng


Жанр: бойовик, трилер, драма, кримінал
Країна: США



Кінокомпанія: Kazanjian/Siebert Productions, Malpaso Productions, Warner Bros. Pictures
Режисер: Клінт Іствуд
Актори: Клінт Іствуд, Чарлі Шин, Рауль Хуліа, Соня Брага, Том Скерріт, Лара Флінн Бойл, Пепе Серна, Мазко Родрігес, Піт Рендалл, Донна Мітчелл

Сюжет:
Детективу з Лос-Анджелеса, що займається викраденнями дорогих машин, Ніку Пуловські, після загибелі його напарника, дають в помічники новачка - Девіда Аккермана. Девід - спавний хлопець з багатої сім'ї, що закінчив університет.
Неприємність, в яку вони з Нікому потрапляють, переслідуючи ватажка банди викрадачів, Строма, змусять його побороти страх. Ризикуючи життям, Девід самотужки йде на поміч Ніку, якого Стром узяв в заручники. Він не лише допомагає Ніку уникнути смерті, але удвох вони розправляються з бандою і її ватажком.


Тривалість: 02:00:45
Якість: 1080p
Відео:
кодек:
розмір кадру: 1920х800
бітрейт: 11.1 Мб/с

Аудіо # 1:
мова: українська
переклад: багатоголосий закадровий
кодек: 5.1
бітрейт: 384 кб/с

Аудіо # 2:
мова: англійська
переклад: оригінал
кодек: 5.1
бітрейт: 1509 кб/с

Субтитри:
мова: англійська
тип: програмні (м'які)
формат: *.srt
Info
General
Unique ID : 247782796833942352202961531705185000938 (0xBA693B1689B2D75DBE8CD3C256BBDDEA)
Format :
Format version : Version 4 / Version 2
File size : 11.0 GiB
Duration : 2 h 0 min
Overall bit rate : 13.0 Mb/s
Encoded date : UTC 2018-09-03 16:57:27
Writing application : v6.1.0 ('Old Devil') built on Mar 4 2013 09:10:42
Writing library : libebml v1.3.0 + v1.4.0

Video
ID : 1
Format : AVC
Format/Info : Advanced Video Codec
Format profile : [email protected]
Format settings : CABAC / 4 Ref Frames
Format settings, CABAC : Yes
Format settings, ReFrames : 4 frames
Codec ID : V_MPEG4/ISO/AVC
Duration : 2 h 0 min
Bit rate : 11.1 Mb/s
Width : 1 920 pixels
Height : 800 pixels
Display aspect ratio : 2.40:1
Frame rate mode : Constant
Frame rate : 23.976 FPS
Color space : YUV
Chroma subsampling : 4:2:0
Bit depth : 8 bits
Scan type : Progressive
Bits/(Pixel*Frame) : 0.303
Stream size : 9.19 GiB (84%)
Writing library : core 102 r1666 d058f37
Encoding settings : cabac=1 / ref=5 / deblock=1:-2:-2 / analyse=0x3:0x113 / me=umh / subme=10 / psy=1 / psy_rd=1.00:0.00 / mixed_ref=1 / me_range=64 / chroma_me=1 / trellis=2 / 8x8dct=1 / cqm=0 / deadzone=21,11 / fast_pskip=0 / chroma_qp_offset=-2 / threads=6 / sliced_threads=0 / nr=0 / decimate=1 / interlaced=0 / constrained_intra=0 / bframes=8 / b_pyramid=1 / b_adapt=2 / b_bias=0 / direct=3 / weightb=1 / open_gop=0 / weightp=2 / keyint=250 / keyint_min=25 / scenecut=40 / intra_refresh=0 / rc_lookahead=40 / rc=2pass / mbtree=1 / bitrate=11149 / ratetol=2.0 / qcomp=0.70 / qpmin=10 / qpmax=51 / qpstep=4 / cplxblur=20.0 / qblur=0.5 / vbv_maxrate=40000 / vbv_bufsize=30000 / ip_ratio=1.40 / aq=1:1.00 / nal_hrd=none
Default : No
Forced : No

Audio #1
ID : 2
Format : AC-3
Format/Info : Audio Coding 3
Codec ID : A_AC3
Duration : 2 h 0 min
Bit rate mode : Constant
Bit rate : 384 kb/s
Channel(s) : 6 channels
Channel positions : Front: L C R, Side: L R, LFE
Sampling rate : 48.0 kHz
Frame rate : 31.250 FPS (1536 SPF)
Bit depth : 16 bits
Compression mode : Lossy
Stream size : 332 MiB (3%)
Title : UKR (NTN)
Language : Ukrainian
Service kind : Complete Main
Default : Yes
Forced : Yes

Audio #2
ID : 3
Format :
Format/Info : Digital Theater Systems
Codec ID : A_DTS
Duration : 2 h 0 min
Bit rate mode : Constant
Bit rate : 1 509 kb/s
Channel(s) : 6 channels
Channel positions : Front: L C R, Side: L R, LFE
Sampling rate : 48.0 kHz
Frame rate : 93.750 FPS (512 SPF)
Bit depth : 24 bits
Compression mode : Lossy
Stream size : 1.27 GiB (12%)
Language : English
Default : No
Forced : No

Text
ID : 4
Format : UTF-8
Codec ID : S_TEXT/UTF8
Codec ID/Info : UTF-8 Plain Text
Language : English
Default : No
Forced : No
Скріншоти








За українську доріжку подяка п.: olgaya, Romario_O
За укр. постер подяка п. dr_stas
Особиста подяка пану denixx за надану матеріальну допомогу на підтримку цього і майбутніх релізів.
Джерело:


Срібний реліз (на рейтинг впливає 50% завантаженого)
 Трекер:    Зареєстрований   

Завантажити / скачати фільм українською



відео для новачків



 Зареєстрований:   2018-09-03 20:05
 Розмір:   11.01 GB 
 Оцінка фільму:   10/10 (Голосів: 2)
   
Інші релізи
   Новачок / The Rookie (1990) 720p Ukr/Eng | Sub Eng staf777  2 / 0   6.08 GB   2017-02-19 10:29 
   Новачок / The Rookie (1990) Ukr/Eng | Sub Eng Romario_O  6 / 0   2.18 GB   2010-10-16 21:13 
+380954897458 
Свій


З нами з: 02.06.17
Востаннє: 20.10.18
Повідомлень: 73

2018-09-04 21:27  
Дуже дякую за класний, тепер вже вінтажний бойовик безсмертного Клінта!!!
Ваш часовий пояс: GMT + 2 Години

Нова тема   Відповісти