Теорема зеро / The Zero Theorem (2013) Remux 1080p Ukr/Eng | Sub Eng

Нові коментарі

Нова тема   Відповісти
Автор Повідомлення
IronBee 
Поважний учасник


З нами з: 08.02.10
Востаннє: 11.12.18
Повідомлень: 211

2018-09-03 18:51  
Теорема зеро / The Zero Theorem (2013) Remux 1080p Ukr/Eng | Sub Eng

Теорема зеро / The Zero Theorem (2013) Remux 1080p Ukr/Eng | Sub Eng


Жанр: трилер, фантастика, драма
Країна: США, Румунія, Велика Британія



Кінокомпанія: Le Pacte, MediaPro Pictures, Picture Perfect Corporation, Voltage Pictures, Wild Side Films, Zanuck Independent
Режисер: Террі Гілліам
Актори: Крістоф Вальц, Мелані Тьєррі, Девід Тьюліс, Лукас Хеджес, Метт Деймон, Бен Уішоу, Тільда Суінтон, Санджив Бхаскар, Інгрід Бису, Маргаріта Дойл, Петер Стормаре

Сюжет:
У центрі сюжету картини «Теорема Зеро», дія якої розгортається в утопічному світі, - ексцентричний персонаж, самотній комп'ютерний геній Коен Лет, який ніяк не може вирішити одну нерозв'язну теорему Зеро - чи є у житті мета і що це взагалі таке. Завдяки костюму для віртуальної реальності, винайденому хлопчиком Бобом, Лету вдається здійснити подорож в прихований простір і дізнатися таємницю своєї душі. Цю розгадку шукає не тільки він сам, але і таємничий Менеджмент, який править усім світом за допомогою всевидячих пристроїв під назвою ManCams.


Тривалість: 01:46:27
Якість: Remux
Відео:
кодек:
розмір кадру: 1920 х 1080
бітрейт: 25.1 Mб/с

Аудіо # 1:
мова: українська | Oboz TV
переклад: багатоголосий закадровий
кодек: 2.0
бітрейт: 192 кб/с

Аудіо # 2:
мова: англійська
переклад: оригінал
кодек: -HD MA 5.1
бітрейт: 2 211 кб/с

Субтитри # 1-2: (повні, SDH)
мова: англійська
тип: пререндерні
формат: *.PGS
Info
General
Unique ID : 324497361932285221594790039146739972472 (0xF41FEB2ACFCD36B6EBC1495DBF3EB978)
Complete name : E:\Films\Теорема зеро The Zero Theorem (2013) Remux 1080p UkrEng Sub Eng[Hurtom].
Format :
Format version : Version 4 / Version 2
File size : 20.5 GiB
Duration : 1 h 46 min
Overall bit rate mode : Variable
Overall bit rate : 27.6 Mb/s
Encoded date : UTC 2018-09-03 16:22:44
Writing application : v26.0.0 ('In The Game') 64-bit
Writing library : libebml v1.3.6 + v1.4.9

Video
ID : 1
Format : AVC
Format/Info : Advanced Video Codec
Format profile : [email protected]
Format settings : CABAC / 2 Ref Frames
Format settings, CABAC : Yes
Format settings, ReFrames : 2 frames
Codec ID : V_MPEG4/ISO/AVC
Duration : 1 h 46 min
Bit rate mode : Variable
Bit rate : 25.1 Mb/s
Width : 1 920 pixels
Height : 1 080 pixels
Display aspect ratio : 16:9
Frame rate mode : Constant
Frame rate : 23.976 (24000/1001) FPS
Color space : YUV
Chroma subsampling : 4:2:0
Bit depth : 8 bits
Scan type : Progressive
Bits/(Pixel*Frame) : 0.505
Stream size : 18.7 GiB (91%)
Default : Yes
Forced : No

Audio #1
ID : 2
Format : AC-3
Format/Info : Audio Coding 3
Commercial name : Dolby Digital
Codec ID : A_AC3
Duration : 1 h 46 min
Bit rate mode : Constant
Bit rate : 192 kb/s
Channel(s) : 2 channels
Channel positions : Front: L R
Sampling rate : 48.0 kHz
Frame rate : 31.250 FPS (1536 SPF)
Bit depth : 16 bits
Compression mode : Lossy
Stream size : 146 MiB (1%)
Title : 2.0 192 кб/с багатоголосий закадровий Oboz TV
Language : Ukrainian
Service kind : Complete Main
Default : Yes
Forced : No

Audio #2
ID : 3
Format :
Format/Info : Digital Theater Systems
Format profile : MA / Core
Codec ID : A_DTS
Duration : 1 h 46 min
Bit rate mode : Variable / Constant
Bit rate : 2 211 kb/s / 1 509 kb/s
Channel(s) : 6 channels
Channel positions : Front: L C R, Side: L R, LFE
Sampling rate : 48.0 kHz
Frame rate : 93.750 FPS (512 SPF)
Bit depth : 16 bits
Compression mode : Lossless / Lossy
Stream size : 1.64 GiB (8%)
Language : English
Default : No
Forced : No

Text #1
ID : 4
Format : PGS
Muxing mode : zlib
Codec ID : S_HDMV/PGS
Codec ID/Info : Picture based subtitle format used on BDs/HD-DVDs
Duration : 1 h 39 min
Bit rate : 32.5 kb/s
Count of elements : 2408
Stream size : 23.1 MiB (0%)
Language : English
Default : Yes
Forced : No

Text #2
ID : 5
Format : PGS
Muxing mode : zlib
Codec ID : S_HDMV/PGS
Codec ID/Info : Picture based subtitle format used on BDs/HD-DVDs
Duration : 1 h 44 min
Bit rate : 24.9 kb/s
Count of elements : 2983
Stream size : 18.6 MiB (0%)
Language : English
Default : No
Forced : No
Скріншоти



Запис/синхронізація: sergiyko

Джерело: &
Особиста оцінка: 0 - не дивився


Золотий реліз (завантажене не впливає на рейтинг)
 Трекер:    Зареєстрований   

Завантажити / скачати фільм українською



відео для новачків



 Зареєстрований:   2018-09-03 18:51
 Розмір:   20.49 GB 
 Оцінка фільму:   7.7/10 (Голосів: 3)
   
Інші релізи
   Теорема зеро / The Zero Theorem (2013) 1080p H.265 Ukr/Eng | Sub Eng -Star-Lord-  0 / 0   8.84 GB   2018-09-10 11:54 
   Теорема зеро / The Zero Theorem (2013) AVC sergiyko.5  10 / 0   1.33 GB   2018-08-29 20:23 
   Теорема зеро / The Zero Theorem (2013) Ukr/Eng sergiyko.5  5 / 0   1.96 GB   2018-08-29 15:53 
   Теорема зеро / The Zero Theorem (2013) 1080p Ukr/Eng | Sub Eng sergiyko.5  6 / 0   8.2 GB   2018-08-29 15:50 
Ваш часовий пояс: GMT + 2 Години

Нова тема   Відповісти