Клуб молодих мільярдерів / Billionaire Boys Club (2018) Remux 1080p Ukr/Eng | Sub Eng

Нові коментарі

Нова тема   Відповісти
Автор Повідомлення
staf777 
Попереджень: 1
Попереджень: 1 


З нами з: 16.11.16
Востаннє: 21.10.18
Повідомлень: 1642

2018-09-03 18:58  
Клуб молодих мільярдерів / Billionaire Boys Club (2018) Remux 1080p Ukr/Eng | Sub Eng




Жанр: біографія, драма, трилер
Країна: США



Кінокомпанія: Armory Films, Oriah Entertainment, Tibet Born Pictures Limited
Режисер: Джеймс Кокс
Ролі озвучують: Енсел Елґорт, Тарон Еджертон, Ема Робертс, Кевін Спейсі, Джеремі Ірвін, С'юкі Вотерхаус, Кері Елвіс, Джадд Нельсон, Бокім Вудбайн, Томас Кокерел та інші

Сюжет:
Події розгортаються у 80-х роках минулого століття. Джо Хант разом зі своїми друзями – сини впливових і заможних батьків. Хант і Карні вирішують заробити великі гроші та організовують фінансову піраміду. Спершу справи йдуть в гору. Охочих вступити до заснованого ними Клубу багато, тож гроші течуть до них потужним потоком. Юнаки насолоджуються своїм успіхом і купаються у розкоші. Та система, хоч і працює успішно, приречена на невдачу. І рано чи пізно це станеться.


Тривалість: 01:48:19
Якість: Remux 1080p

Відео:
кодек:
розмір кадру: 1920х1080
бітрейт: 22.2 Мб/с

Аудіо # 1:
мова: українська
переклад: професійний дубльований | студія AAA-Sound
кодек: 2.0
бітрейт: 192 кб/с

Аудіо # 2:
мова: англійська
переклад: оригінал
кодек: -HD HRA 5.1
бітрейт: 2046 кб/с

Субтитри # 1-2: (Full, SDH)
мова: англійська
тип: програмні (м'які)
формат: *.srt
Info
Код:

General
Unique ID                   : 324103917568416259790876130048064095246 (0xF3D424DCC7768CB233A9F3DF6E60040E)
Complete name               : S:\Кинозал\Billionaire Boys Club (2018) Remux 1080p [UKR_ENG] [Hurtom].
Format                      :
Format version              : Version 4 / Version 2
File size                   : 17.7 GiB
Duration                    : 1 h 43 min
Overall bit rate mode       : Variable
Overall bit rate            : 24.4 Mb/s
Movie name                  : Billionaire Boys Club (2018) Remux 1080p [UKR_ENG] [Hurtom]
Encoded date                : UTC 2018-09-03 19:41:56
Writing application         : v24.0.0 ('Beyond The Pale') 64-bit
Writing library             : libebml v1.3.6 + v1.4.9
Cover                       : Yes
Attachments                 : cover

Video
ID                          : 1
Format                      : AVC
Format/Info                 : Advanced Video Codec
Format profile              : [email protected]
Format settings             : CABAC / 3 Ref Frames
Format settings, CABAC      : Yes
Format settings, ReFrames   : 3 frames
Format settings, GOP        : M=3, N=12
Codec ID                    : V_MPEG4/ISO/AVC
Duration                    : 1 h 43 min
Bit rate mode               : Variable
Bit rate                    : 22.2 Mb/s
Maximum bit rate            : 29.6 Mb/s
Width                       : 1 920 pixels
Height                      : 1 080 pixels
Display aspect ratio        : 16:9
Frame rate mode             : Constant
Frame rate                  : 25.000 FPS
Standard                    : NTSC
Color space                 : YUV
Chroma subsampling          : 4:2:0
Bit depth                   : 8 bits
Scan type                   : MBAFF
Bits/(Pixel*Frame)          : 0.427
Stream size                 : 16.1 GiB (91%)
Default                     : Yes
Forced                      : No
Color range                 : Limited
Color primaries             : BT.709
Transfer characteristics    : BT.709
Matrix coefficients         : BT.709

Audio #1
ID                          : 2
Format                      : AC-3
Format/Info                 : Audio Coding 3
Codec ID                    : A_AC3
Duration                    : 1 h 43 min
Bit rate mode               : Constant
Bit rate                    : 192 kb/s
Channel(s)                  : 2 channels
Channel positions           : Front: L R
Sampling rate               : 48.0 kHz
Frame rate                  : 31.250 FPS (1536 SPF)
Bit depth                   : 16 bits
Compression mode            : Lossy
Stream size                 : 143 MiB (1%)
Title                       : 2.0 @ 192 kbps
Language                    : Ukrainian
Service kind                : Complete Main
Default                     : Yes
Forced                      : Yes

Audio #2
ID                          : 3
Format                      :
Format/Info                 : Digital Theater Systems
Format profile              : HRA / Core
Codec ID                    : A_DTS
Duration                    : 1 h 43 min
Bit rate mode               : Constant
Bit rate                    : 2 046 kb/s / 1 509 kb/s
Channel(s)                  : 6 channels
Channel positions           : Front: L C R, Side: L R, LFE
Sampling rate               : 48.0 kHz
Frame rate                  : 93.750 FPS (512 SPF)
Bit depth                   : 24 bits
Compression mode            : Lossy
Stream size                 : 1.48 GiB (8%)
Language                    : English
Default                     : No
Forced                      : No

Text #1
ID                          : 4
Format                      : UTF-8
Codec ID                    : S_TEXT/UTF8
Codec ID/Info               : UTF-8 Plain Text
Duration                    : 1 h 31 min
Bit rate                    : 83 b/s
Count of elements           : 1683
Stream size                 : 55.9 KiB (0%)
Title                       : Full
Language                    : English
Default                     : No
Forced                      : No

Text #2
ID                          : 5
Format                      : UTF-8
Codec ID                    : S_TEXT/UTF8
Codec ID/Info               : UTF-8 Plain Text
Duration                    : 1 h 31 min
Bit rate                    : 86 b/s
Count of elements           : 1734
Stream size                 : 58.2 KiB (0%)
Title                       : SDH
Language                    : English
Default                     : No
Forced                      : No

Menu
00:00:00.000                : en:00:00:00.000
00:04:51.080                : en:00:04:51.080
00:13:48.760                : en:00:13:48.760
00:23:02.400                : en:00:23:02.400
00:28:31.800                : en:00:28:31.800
00:34:13.960                : en:00:34:13.960
00:42:05.760                : en:00:42:05.760
00:49:09.680                : en:00:49:09.680
00:55:00.000                : en:00:55:00.000
01:02:40.320                : en:01:02:40.320
01:10:45.560                : en:01:10:45.560
01:17:18.720                : en:01:17:18.720
01:23:53.760                : en:01:23:53.760
01:33:08.080                : en:01:33:08.080
Скріншоти





Джерело: & &
Особиста оцінка: 0 - не дивився


Золотий реліз (завантажене не впливає на рейтинг)
 Трекер:    Зареєстрований   

Завантажити / скачати фільм українською



відео для новачків



 Зареєстрований:   2018-09-03 23:22
 Розмір:   17.7 GB 
 Оцінка фільму:   9.2/10 (Голосів: 6)
   
Ваш часовий пояс: GMT + 2 Години

Нова тема   Відповісти