Клуб молодих мільярдерів / Billionaire Boys Club (2018) Remux 1080i Ukr/Eng | Sub Eng

Нові коментарі

Нова тема   Відповісти
Автор Повідомлення
staf777 
Попереджень: 1
Попереджень: 1 


З нами з: 16.11.16
Востаннє: 17.02.19
Повідомлень: 2144

2018-09-03 17:58  
Клуб молодих мільярдерів / Billionaire Boys Club (2018) Remux 1080i Ukr/Eng | Sub Eng




Жанр: біографія, драма, трилер
Країна: США



Кінокомпанія: Armory Films, Oriah Entertainment, Tibet Born Pictures Limited
Режисер: Джеймс Кокс
Ролі озвучують: Енсел Елґорт, Тарон Еджертон, Ема Робертс, Кевін Спейсі, Джеремі Ірвін, С'юкі Вотерхаус, Кері Елвіс, Джадд Нельсон, Бокім Вудбайн, Томас Кокерел та інші

Сюжет:
Події розгортаються у 80-х роках минулого століття. Джо Хант разом зі своїми друзями – сини впливових і заможних батьків. Хант і Карні вирішують заробити великі гроші та організовують фінансову піраміду. Спершу справи йдуть в гору. Охочих вступити до заснованого ними Клубу багато, тож гроші течуть до них потужним потоком. Юнаки насолоджуються своїм успіхом і купаються у розкоші. Та система, хоч і працює успішно, приречена на невдачу. І рано чи пізно це станеться.


Тривалість: 01:43:51
Якість: Remux 1080i

Відео:
кодек:
розмір кадру: 1920х1080
бітрейт: 22,2 Мб/с

Аудіо # 1:
мова: українська
переклад: професійний дубльований | студія AAA-Sound
кодек: -HD MA 5.1
бітрейт: 3707 кб/с

Аудіо # 2:
мова: українська
переклад: професійний дубльований | студія AAA-Sound
кодек: 5.1
бітрейт: 640 кб/с

Аудіо # 3:
мова: англійська
переклад: оригінал
кодек: -HD HRA 5.1
бітрейт: 2046 кб/с

Субтитри # 1-2: (Full, SDH)
мова: англійська
тип: програмні (м'які)
формат: *.srt
Info
Код:

General
Unique ID                   : 44523275967309784245527179275386621327 (0x217EDEFC8712CD98B9D59A5F6C120D8F)
Complete name               : S:\Фільми в HD\Трилер\Billionaire Boys Club (2018) Remux 1080p [UKR_ENG] [Hurtom].
Format                      :
Format version              : Version 4 / Version 2
File size                   : 20.7 GiB
Duration                    : 1 h 43 min
Overall bit rate mode       : Variable
Overall bit rate            : 28.6 Mb/s
Movie name                  : Billionaire Boys Club (2018) Remux 1080p [UKR_ENG] [Hurtom]
Encoded date                : UTC 2019-01-11 07:45:23
Writing application         : v24.0.0 ('Beyond The Pale') 64-bit
Writing library             : libebml v1.3.6 + v1.4.9
Cover                       : Yes
Attachments                 : cover

Video
ID                          : 1
Format                      : AVC
Format/Info                 : Advanced Video Codec
Format profile              : [email protected]
Format settings             : CABAC / 3 Ref Frames
Format settings, CABAC      : Yes
Format settings, ReFrames   : 3 frames
Format settings, GOP        : M=3, N=12
Codec ID                    : V_MPEG4/ISO/AVC
Duration                    : 1 h 43 min
Bit rate mode               : Variable
Bit rate                    : 22.2 Mb/s
Maximum bit rate            : 29.6 Mb/s
Width                       : 1 920 pixels
Height                      : 1 080 pixels
Display aspect ratio        : 16:9
Frame rate mode             : Constant
Frame rate                  : 25.000 FPS
Standard                    : NTSC
Color space                 : YUV
Chroma subsampling          : 4:2:0
Bit depth                   : 8 bits
Scan type                   : MBAFF
Bits/(Pixel*Frame)          : 0.427
Stream size                 : 16.1 GiB (78%)
Default                     : Yes
Forced                      : No
Color range                 : Limited
Color primaries             : BT.709
Transfer characteristics    : BT.709
Matrix coefficients         : BT.709

Audio #1
ID                          : 2
Format                      :
Format/Info                 : Digital Theater Systems
Format profile              : MA / Core
Codec ID                    : A_DTS
Duration                    : 1 h 43 min
Bit rate mode               : Variable / Constant
Bit rate                    : 3 707 kb/s / 1 509 kb/s
Channel(s)                  : 6 channels
Channel positions           : Front: L C R, Side: L R, LFE
Sampling rate               : 48.0 kHz
Frame rate                  : 93.750 FPS (512 SPF)
Bit depth                   : 24 bits
Compression mode            : Lossless / Lossy
Stream size                 : 2.69 GiB (13%)
Title                       : HD MA | студія AAA-Sound
Language                    : Ukrainian
Default                     : Yes
Forced                      : Yes

Audio #2
ID                          : 3
Format                      : AC-3
Format/Info                 : Audio Coding 3
Codec ID                    : A_AC3
Duration                    : 1 h 43 min
Bit rate mode               : Constant
Bit rate                    : 640 kb/s
Channel(s)                  : 6 channels
Channel positions           : Front: L C R, Side: L R, LFE
Sampling rate               : 48.0 kHz
Frame rate                  : 31.250 FPS (1536 SPF)
Bit depth                   : 16 bits
Compression mode            : Lossy
Stream size                 : 475 MiB (2%)
Title                       : | студія AAA-Sound
Language                    : Ukrainian
Service kind                : Complete Main
Default                     : No
Forced                      : No

Audio #3
ID                          : 4
Format                      :
Format/Info                 : Digital Theater Systems
Format profile              : HRA / Core
Codec ID                    : A_DTS
Duration                    : 1 h 43 min
Bit rate mode               : Constant
Bit rate                    : 2 046 kb/s / 1 509 kb/s
Channel(s)                  : 6 channels
Channel positions           : Front: L C R, Side: L R, LFE
Sampling rate               : 48.0 kHz
Frame rate                  : 93.750 FPS (512 SPF)
Bit depth                   : 24 bits
Compression mode            : Lossy
Stream size                 : 1.48 GiB (7%)
Language                    : English
Default                     : No
Forced                      : No

Text #1
ID                          : 5
Format                      : UTF-8
Codec ID                    : S_TEXT/UTF8
Codec ID/Info               : UTF-8 Plain Text
Duration                    : 1 h 31 min
Bit rate                    : 83 b/s
Count of elements           : 1683
Stream size                 : 55.9 KiB (0%)
Title                       : Full
Language                    : English
Default                     : No
Forced                      : No

Text #2
ID                          : 6
Format                      : UTF-8
Codec ID                    : S_TEXT/UTF8
Codec ID/Info               : UTF-8 Plain Text
Duration                    : 1 h 31 min
Bit rate                    : 86 b/s
Count of elements           : 1734
Stream size                 : 58.2 KiB (0%)
Title                       : SDH
Language                    : English
Default                     : No
Forced                      : No

Menu
00:00:00.000                : en:00:00:00.000
00:04:51.080                : en:00:04:51.080
00:13:48.760                : en:00:13:48.760
00:23:02.400                : en:00:23:02.400
00:28:31.800                : en:00:28:31.800
00:34:13.960                : en:00:34:13.960
00:42:05.760                : en:00:42:05.760
00:49:09.680                : en:00:49:09.680
00:55:00.000                : en:00:55:00.000
01:02:40.320                : en:01:02:40.320
01:10:45.560                : en:01:10:45.560
01:17:18.720                : en:01:17:18.720
01:23:53.760                : en:01:23:53.760
01:33:08.080                : en:01:33:08.080
Скріншоти






Джерело: &
Особиста оцінка: 8 - мені сподобалося
Клуб молодих мільярдерів / Billionaire Boys Club (2018) Remux 1080i Ukr/Eng | Sub Eng Клуб молодих мільярдерів / Billionaire Boys Club (2018) Remux 1080i Ukr/Eng | Sub Eng


Золотий реліз (завантажене не впливає на рейтинг)
 Трекер:    Зареєстрований   

Завантажити / скачати фільм українською



відео для новачків



 Зареєстрований:   2019-01-11 11:01
 Розмір:   20.72 GB 
 Оцінка фільму:   8.3/10 (Голосів: 16)
   
igor911 
Відео Гуртом
Відео Гуртом


З нами з: 18.01.08
Востаннє: 17.02.19
Повідомлень: 12031

2019-01-03 20:47  
В мережі з'явився блурей з українською доріжкою -HD MA 5.1 3687 kbps
Jatx_11 
Відео Гуртом - фільмокрай
Відео Гуртом - фільмокрай


З нами з: 20.04.11
Востаннє: 17.02.19
Повідомлень: 776

2019-01-07 00:17  
Клуб молодих мільярдерів / Billionaire Boys Club (2018) 3687kbps
https://fex.net/700557165539

staf777 
Попереджень: 1
Попереджень: 1 


З нами з: 16.11.16
Востаннє: 17.02.19
Повідомлень: 2144

2019-01-10 20:26  
Додав доріжку HD MA 
T-Mon 
Частий відвідувач


З нами з: 30.07.10
Востаннє: 17.02.19
Повідомлень: 38

2019-01-11 11:52  
Питання. Рейтинг IMDB такий низький, бо фільм дійсно поганий? Чи це зубожілі наголосували?
igor911 
Відео Гуртом
Відео Гуртом


З нами з: 18.01.08
Востаннє: 17.02.19
Повідомлень: 12031

2019-01-11 12:12  
staf777 написано:
1080p

тут (і в неоновленому 1080 ріпі) інтерлейсний відеоряд, виправив.

Annonimus 
Новенький


З нами з: 17.11.13
Востаннє: 16.02.19
Повідомлень: 1

2019-01-19 14:03  
Переглянув цей фільм. Абсолютно не зайшов. Сюжет, який на початку набирає оборотів видається цікавим, але в другій половині вся історія подається дуже швидко і сумбурно. То хлопці арендують шикарний пейнт-хауз для свого офісу, то через декілька хвилин все йде шкеребеть і плани міняються з карколомною швидкістю. Незрозуміла також присутність героїв у фільмі, таке враження, що сценаристи до кінця хронометражу не розуміють, що робити з кожним із них, і персонажі випадають з повісті. Єдиний плюс, то це гра Кевіна Спейсі, чувак реально своєю грою заставляє продовжити дивитися фільм, від самого початку. Особиста оцінка 6,5/10; дивитися тільки в тому разі, якщо цікава тема фінансових пірамід та їхні наслідки.
Ваш часовий пояс: GMT + 2 Години

Нова тема   Відповісти