Стан серця / Heart Condition (1990) 720p Ukr/Eng | Sub Eng

Нові коментарі

Нова тема   Відповісти
Автор Повідомлення
Anonymous 







2018-09-03 14:09  
Стан серця / Heart Condition (1990) 720p Ukr/Eng | Sub Eng

Стан серця / Heart Condition (1990) 720p Ukr/Eng | Sub Eng


Жанр: екшн, комедія, драма, фентезі
Країна: США



Кінокомпанія: New Line Cinema
Режисер: Джеймс Д. Перріотт (James D. Parriott)
Актори: Боб Госкінс (Bob Hoskins), Дензел Вашингтон (Denzel Washington), Хлоя Вебб (Chloe Webb), Роджер Е. Мослі (Roger E. Mosley), Джа'нет ДюБуа (Ja'net DuBois), Алан Рачінс (Alan Rachins)

Сюжет:
Лос-анджелеський поліцейський Джек Муні - расист за переконанням. Можете уявити його невдоволення, коли він, прийшовши до тями після трансплантаційної операції дізнається, що йому пересаджено серце негра. І не простого негра, а особистого ворога Джека - загиблого напередодні адвоката, пов'язаного зі злочинним світом. І можете уявити сказ Джека, коли негр починає «діставати» його навіть після своєї смерті, являючись до поліцейського в якості примари.


Тривалість: 01:40:10
Якість: 720p
Відео:
кодек:
розмір кадру: 1280х718
бітрейт: 4062 кб/с

Аудіо # 1:
мова: українська
переклад: двоголосий закадровий
кодек: 5.1
бітрейт: 448 кб/с

Аудіо # 2:
мова: англійська
переклад: оригінал
кодек: 5.1
бітрейт: 448 кб/с

Субтитри:
мова: англійська
тип: програмні (м'які)
формат: *.srt
Info
General
Unique ID : 173565338753531589418502382785415672182 (0x829377E3E7D80355A65EC249AC60F176)
Format :
Format version : Version 4 / Version 2
File size : 3.54 GiB
Duration : 1 h 40 min
Overall bit rate : 5 059 kb/s
Encoded date : UTC 2018-09-03 10:59:24
Writing application : v6.1.0 ('Old Devil') built on Mar 4 2013 09:10:42
Writing library : libebml v1.3.0 + v1.4.0

Video
ID : 1
Format : AVC
Format/Info : Advanced Video Codec
Format profile : [email protected]
Format settings : 2 Ref Frames
Format settings, CABAC : No
Format settings, ReFrames : 2 frames
Codec ID : V_MPEG4/ISO/AVC
Duration : 1 h 40 min
Bit rate : 4 062 kb/s
Width : 1 280 pixels
Height : 718 pixels
Display aspect ratio : 16:9
Frame rate mode : Constant
Frame rate : 23.976 FPS
Color space : YUV
Chroma subsampling : 4:2:0
Bit depth : 8 bits
Scan type : Progressive
Bits/(Pixel*Frame) : 0.184
Stream size : 2.84 GiB (80%)
Language : English
Default : Yes
Forced : No
Color range : Limited
Color primaries : BT.709
Transfer characteristics : BT.709
Matrix coefficients : BT.709

Audio #1
ID : 2
Format : AC-3
Format/Info : Audio Coding 3
Codec ID : A_AC3
Duration : 1 h 40 min
Bit rate mode : Constant
Bit rate : 448 kb/s
Channel(s) : 6 channels
Channel positions : Front: L C R, Side: L R, LFE
Sampling rate : 48.0 kHz
Frame rate : 31.250 FPS (1536 SPF)
Bit depth : 16 bits
Compression mode : Lossy
Stream size : 321 MiB (9%)
Title : НТН
Language : Ukrainian
Service kind : Complete Main
Default : Yes
Forced : Yes

Audio #2
ID : 3
Format : AC-3
Format/Info : Audio Coding 3
Codec ID : A_AC3
Duration : 1 h 40 min
Bit rate mode : Constant
Bit rate : 448 kb/s
Channel(s) : 6 channels
Channel positions : Front: L C R, Side: L R, LFE
Sampling rate : 48.0 kHz
Frame rate : 31.250 FPS (1536 SPF)
Bit depth : 16 bits
Compression mode : Lossy
Stream size : 321 MiB (9%)
Language : English
Service kind : Complete Main
Default : No
Forced : No

Text
ID : 4
Format : UTF-8
Codec ID : S_TEXT/UTF8
Codec ID/Info : UTF-8 Plain Text
Language : English
Default : No
Forced : No

Menu
00:00:00.000 : en:1.
00:10:00.000 : en:2.
00:20:00.000 : en:3.
00:30:00.000 : en:4.
00:40:00.000 : en:5.
00:50:00.000 : en:6.
01:00:00.000 : en:7.
01:10:00.000 : en:8.
01:20:00.000 : en:9.
01:30:00.000 : en:10.
Скріншоти









За українську доріжку подяка п.: drakon87, urij546724
Особиста подяка пану denixx за надану матеріальну допомогу на підтримку цього і майбутніх релізів.
Джерело:


Срібний реліз (на рейтинг впливає 50% завантаженого)
 Трекер:    Зареєстрований   

Завантажити / скачати фільм українською



відео для новачків



 Зареєстрований:   2018-09-03 14:09
 Розмір:   3.54 GB 
 Оцінка фільму:   10/10 (Голосів: 3)
   
Інші релізи
   Стан серця / Heart Condition (1990) Ukr/Eng urij546724  2 / 0   2 GB   2012-04-25 22:37 
Ваш часовий пояс: GMT + 2 Години

Нова тема   Відповісти