Лють у Гарлемі / A Rage in Harlem (1991) 720p Ukr/Eng | Sub Eng

Нові коментарі

Нова тема   Відповісти
Останній раз роздавалося staf777 (2018-10-16)
Автор Повідомлення
staf777 
Попереджень: 1
Попереджень: 1 


З нами з: 16.11.16
Востаннє: 16.10.18
Повідомлень: 1632

2018-09-03 14:02  
Лють у Гарлемі / A Rage in Harlem (1991) 720p Ukr/Eng | Sub Eng


Лють у Гарлемі / A Rage in Harlem (1991) 720p Ukr/Eng | Sub Eng
Альтернативний постер

Лють у Гарлемі / A Rage in Harlem (1991) 720p Ukr/Eng | Sub Eng


Жанр: кримінальний, комедія
Країна: США, Велика Британія



Кінокомпанія: Miramax Films, Palace Pictures
Режисер: Білл Дюк
Актори: Форест Вітакер, Ґреґорі Гайнс, Робін Гівенс, Закес Мокан, Денні Гловер, Баджо Джола, Джон Тоулс-Бей, Тайлер Коллінз, Венделл Пірс, Гелен Мартін, Рон Тейлор, Семм-Арт Вільямс, Стек Пірс, Леонард Джексон, Рейнальдо Рей, Артур Бергхардт, Скрімін Джей Хокінс, Джордж Воллес

Сюжет:
Дія відбувається в 1956 році. Гангстер Голді разом зі своєю подружкою Іммабель провертають одну справу. Але після того, як золото вже у них, дівчина разом з золотом зникає і ховається в Гарлемі. Притулок їй надає бухгалтер Джексон.


Тривалість: 01:47:53
Якість: 720p
Відео:
кодек:
розмір кадру: 1280x720
бітрейт: 5179 кб/с

Аудіо # 1:
мова: українська
переклад: багатоголосий закадровий
кодек: 2.0
бітрейт: 192 кб/с

Аудіо # 2:
мова: англійська
переклад: оригінал
кодек: 2.0
бітрейт: 192 кб/с

Субтитри:
мова: англійська
тип: програмні (м'які)
формат: *.srt
Info
Код:
General
Unique ID                   : 139223019275912087553171682897914928356 (0x68BD60D037B2F0A90735CCC6679E9CE4)
Complete name               : D:\KINOZAL\A Rage in Harlem (1991) 720p [UKR_ENG] [Hurtom].
Format                      :
Format version              : Version 4 / Version 2
File size                   : 4.19 GiB
Duration                    : 1 h 47 min
Overall bit rate            : 5 563 kb/s
Movie name                  : A Rage in Harlem (1991) 720p [UKR_ENG] [Hurtom]
Encoded date                : UTC 2018-09-05 06:54:28
Writing application         : v24.0.0 ('Beyond The Pale') 64-bit
Writing library             : libebml v1.3.6 + v1.4.9
Cover                       : Yes
Attachments                 : cover.jpg.jpg / poster.jpg

Video
ID                          : 1
Format                      : AVC
Format/Info                 : Advanced Video Codec
Format profile              : [email protected]
Format settings             : CABAC / 5 Ref Frames
Format settings, CABAC      : Yes
Format settings, ReFrames   : 5 frames
Codec ID                    : V_MPEG4/ISO/AVC
Duration                    : 1 h 47 min
Bit rate                    : 5 179 kb/s
Width                       : 1 280 pixels
Height                      : 720 pixels
Display aspect ratio        : 16:9
Frame rate mode             : Constant
Frame rate                  : 23.976 FPS
Color space                 : YUV
Chroma subsampling          : 4:2:0
Bit depth                   : 8 bits
Scan type                   : Progressive
Bits/(Pixel*Frame)          : 0.234
Stream size                 : 3.90 GiB (93%)
Title                       : A Rage in Harlem (1991)
Writing library             : core 130 r2273 b3065e6
Encoding settings           : cabac=1 / ref=5 / deblock=1:-3:-3 / analyse=0x3:0x133 / me=umh / subme=11 / psy=1 / psy_rd=1.00:0.10 / mixed_ref=1 / me_range=32 / chroma_me=1 / trellis=2 / 8x8dct=1 / cqm=0 / deadzone=21,11 / fast_pskip=1 / chroma_qp_offset=-3 / threads=6 / lookahead_threads=1 / sliced_threads=0 / nr=0 / decimate=1 / interlaced=0 / bluray_compat=0 / constrained_intra=0 / bframes=8 / b_pyramid=2 / b_adapt=2 / b_bias=0 / direct=3 / weightb=1 / open_gop=0 / weightp=2 / keyint=250 / keyint_min=23 / scenecut=40 / intra_refresh=0 / rc_lookahead=60 / rc=2pass / mbtree=1 / bitrate=5179 / ratetol=1.0 / qcomp=0.60 / qpmin=0 / qpmax=69 / qpstep=4 / cplxblur=20.0 / qblur=0.5 / ip_ratio=1.40 / aq=1:1.00
Language                    : English
Default                     : Yes
Forced                      : No

Audio #1
ID                          : 2
Format                      : AC-3
Format/Info                 : Audio Coding 3
Codec ID                    : A_AC3
Duration                    : 1 h 47 min
Bit rate mode               : Constant
Bit rate                    : 192 kb/s
Channel(s)                  : 2 channels
Channel positions           : Front: L R
Sampling rate               : 48.0 kHz
Frame rate                  : 31.250 FPS (1536 SPF)
Bit depth                   : 16 bits
Compression mode            : Lossy
Stream size                 : 148 MiB (3%)
Title                       : 2.0 192 [MVO-UA-AMC]
Language                    : Ukrainian
Service kind                : Complete Main
Default                     : Yes
Forced                      : Yes

Audio #2
ID                          : 3
Format                      : AC-3
Format/Info                 : Audio Coding 3
Codec ID                    : A_AC3
Duration                    : 1 h 47 min
Bit rate mode               : Constant
Bit rate                    : 192 kb/s
Channel(s)                  : 2 channels
Channel positions           : Front: L R
Sampling rate               : 48.0 kHz
Frame rate                  : 31.250 FPS (1536 SPF)
Bit depth                   : 16 bits
Compression mode            : Lossy
Stream size                 : 148 MiB (3%)
Title                       : , 2 ch, 192 Kbps, Original
Language                    : English
Service kind                : Complete Main
Default                     : No
Forced                      : No

Text
ID                          : 4
Format                      : UTF-8
Codec ID                    : S_TEXT/UTF8
Codec ID/Info               : UTF-8 Plain Text
Duration                    : 1 h 47 min
Bit rate                    : 70 b/s
Count of elements           : 1812
Stream size                 : 55.3 KiB (0%)
Language                    : English
Default                     : No
Forced                      : No

Menu
00:00:00.000                : en:Chapter 01
00:05:00.000                : en:Chapter 02
00:09:59.500                : en:Chapter 03
00:14:59.500                : en:Chapter 04
00:19:59.000                : en:Chapter 05
00:24:58.500                : en:Chapter 06
00:29:58.500                : en:Chapter 07
00:34:58.000                : en:Chapter 08
00:39:58.000                : en:Chapter 09
00:44:57.500                : en:Chapter 10
00:49:57.000                : en:Chapter 11
00:54:57.000                : en:Chapter 12
00:59:56.500                : en:Chapter 13
01:04:56.500                : en:Chapter 14
01:09:56.000                : en:Chapter 15
01:14:55.500                : en:Chapter 16
01:19:55.500                : en:Chapter 17
01:24:55.000                : en:Chapter 18
01:29:55.000                : en:Chapter 19
01:34:54.500                : en:Chapter 20
01:42:47.000                : en:Chapter 21
Скріншоти



Джерело: &
Подяка slavik_v_z за запис звуку з amc та Arsenfpu за синхронізацію.
Особиста оцінка: 8 - мені сподобалося


Срібний реліз (на рейтинг впливає 50% завантаженого)
 Трекер:    Зареєстрований   

Завантажити / скачати фільм українською



відео для новачків



 Зареєстрований:   2018-09-06 09:21
 Розмір:   4.19 GB 
 Оцінка фільму:   5.5/10 (Голосів: 4)
   
Інші релізи
   Лють у Гарлемі / A Rage in Harlem (1991) 1080p Ukr/Eng staf777  2 / 0   8.09 GB   2016-12-01 19:04 
   Лють у Гарлемі / A Rage in Harlem (1991) Ukr/Eng Arsenfpu  1 / 0   1.96 GB   2016-10-07 20:54 
bot 
робот


З нами з: 30.09.07
Востаннє: 26.05.05
Повідомлень: 19956

2018-09-06 09:20  
Тему перенесено з Анонси релізів до форуму Фільми в HD


staf777

Ваш часовий пояс: GMT + 2 Години

Нова тема   Відповісти