Коп / Cop (1988) 1080p 2xUkr/Eng | Sub Eng

Нові коментарі

Нова тема   Відповісти
Автор Повідомлення
Anonymous 







2018-09-03 13:56  
Коп / Cop (1988) 1080p 2xUkr/Eng | Sub Eng

Коп / Cop (1988) 1080p 2xUkr/Eng | Sub Eng


Жанр: трилер, кримінальний, драма
Країна: США



Кінокомпанія: Atlantic Entertainment Group, Harris-Woods Productions
Режисер: Джеймс Б. Гарріс (James B. Harris)
Актори: Джеймс Вудс (James Woods), Леслі Енн Воррен (Lesley Ann Warren), Чарльз Дернінг (Charles Durning), Чарльз Гейд (Charles Haid), Реймонд Дж. Беррі (Raymond J. Barry), Ренді Брукс (Randi Brooks), Стівен Ламберт (Steven Lambert), Крістофер Вінн (Christopher Wynne), Джен МакГілл (Jan McGill), Віккі Вочоуп (Vicki Wauchope), Мелінда Лінч (Melinda Lynch), Джон Петіевіч (John Petievich), Денніс Стюарт (Dennis Stewart), Ренді Пеліш (Randy Pelish), Енні МакЕнро (Annie McEnroe), Рік Маротта (Rick Marotta), Майкл В. Аллен (Michael V. Allen), Гелен Пейдж Кемп (Helen Page Camp), Скотт Сендлер (Scott Sandler), Крістофер Блейн (Christopher Blane), Метт Елмонд (Matt Almond), Бенкс Гарпер (Banks Harper), Джим Вілкі (Jim Wilkey), Джиммі Вудард (Jimmy Woodard), Лайл Хаурі (Lyle Howry)

Сюжет:
У поліцію надійшло анонімне повідомлення про вбивство. Поліцейський Ллойд поїхав за вказаною адресою і виявив по звірячому знівечений труп молодої жінки. Розслідування привело Ллойда до феміністки Кетлін.

Вона не має поняття про вбивства, але в день трагедії отримує квіти і вірші від невідомого шанувальника.


Тривалість: 01:50:48
Якість: 1080p
Відео:
кодек:
розмір кадру: 1920х1040
бітрейт: 12 Мб/с

Аудіо # 1:
мова: українська
переклад: багатоголосий закадровий
кодек: 2.0
бітрейт: 192 кб/с

Аудіо # 2:
мова: українська
переклад: багатоголосий закадровий
кодек: 2.0
бітрейт: 192 кб/с

Аудіо # 3:
мова: англійська
переклад: оригінал
кодек: 5.1
бітрейт: 1509 кб/с

Субтитри:
мова: англійська
тип: програмні (м'які)
формат: *.srt
Info

General
Unique ID : 222985325555055175701164849495027300081 (0xA7C1695C4B36D60787ED0CC863B536F1)
Complete name : H:\Toloka\2019\Cop (1988) 1080p.
Format :
Format version : Version 4
File size : 10.7 GiB
Duration : 1 h 50 min
Overall bit rate : 13.9 Mb/s
Encoded date : UTC 2019-08-19 02:09:24
Writing application : v6.1.0 ('Old Devil') built on Mar 4 2013 09:10:42
Writing library : libebml v1.3.0 + v1.4.0

Video
ID : 1
Format : AVC
Format/Info : Advanced Video Codec
Format profile : [email protected]
Format settings : CABAC / 4 Ref Frames
Format settings, CABAC : Yes
Format settings, RefFrames : 4 frames
Codec ID : V_MPEG4/ISO/AVC
Duration : 1 h 50 min
Bit rate : 12.0 Mb/s
Width : 1 920 pixels
Height : 1 040 pixels
Display aspect ratio : 1.85:1
Frame rate mode : Constant
Frame rate : 23.976 (24000/1001) FPS
Color space : YUV
Chroma subsampling : 4:2:0
Bit depth : 8 bits
Scan type : Progressive
Bits/(Pixel*Frame) : 0.251
Stream size : 9.07 GiB (84%)
Writing library : core 146 r2538 121396c
Encoding settings : cabac=1 / ref=4 / deblock=1:-2:-2 / analyse=0x3:0x133 / me=umh / subme=11 / psy=1 / psy_rd=1.00:0.00 / mixed_ref=1 / me_range=32 / chroma_me=1 / trellis=2 / 8x8dct=1 / cqm=0 / deadzone=21,11 / fast_pskip=0 / chroma_qp_offset=-2 / threads=12 / lookahead_threads=2 / sliced_threads=0 / nr=0 / decimate=0 / interlaced=0 / bluray_compat=0 / constrained_intra=0 / bframes=12 / b_pyramid=2 / b_adapt=2 / b_bias=0 / direct=3 / weightb=1 / open_gop=0 / weightp=2 / keyint=240 / keyint_min=23 / scenecut=40 / intra_refresh=0 / rc=2pass / mbtree=0 / bitrate=12000 / ratetol=1.0 / qcomp=0.60 / qpmin=0 / qpmax=69 / qpstep=4 / cplxblur=20.0 / qblur=0.5 / ip_ratio=1.40 / pb_ratio=1.30 / aq=3:0.80
Language : English
Default : No
Forced : No

Audio #1
ID : 2
Format : AC-3
Format/Info : Audio Coding 3
Commercial name : Dolby Digital
Codec ID : A_AC3
Duration : 1 h 50 min
Bit rate mode : Constant
Bit rate : 192 kb/s
Channel(s) : 2 channels
Channel layout : L R
Sampling rate : 48.0 kHz
Frame rate : 31.250 FPS (1536 SPF)
Bit depth : 16 bits
Compression mode : Lossy
Stream size : 152 MiB (1%)
Title : UKR (NTN)
Language : Ukrainian
Service kind : Complete Main
Default : Yes
Forced : Yes

Audio #2
ID : 3
Format : AC-3
Format/Info : Audio Coding 3
Commercial name : Dolby Digital
Codec ID : A_AC3
Duration : 1 h 50 min
Bit rate mode : Constant
Bit rate : 192 kb/s
Channel(s) : 2 channels
Channel layout : L R
Sampling rate : 48.0 kHz
Frame rate : 31.250 FPS (1536 SPF)
Bit depth : 16 bits
Compression mode : Lossy
Stream size : 152 MiB (1%)
Title : UKR (AMC)
Language : Ukrainian
Service kind : Complete Main
Default : No
Forced : No

Audio #3
ID : 4
Format :
Format/Info : Digital Theater Systems
Codec ID : A_DTS
Duration : 1 h 50 min
Bit rate mode : Constant
Bit rate : 1 509 kb/s
Channel(s) : 2 channels
Channel layout : L R
Sampling rate : 48.0 kHz
Frame rate : 93.750 FPS (512 SPF)
Bit depth : 16 bits
Compression mode : Lossy
Stream size : 1.17 GiB (11%)
Language : English
Default : No
Forced : No

Text
ID : 5
Format : UTF-8
Codec ID : S_TEXT/UTF8
Codec ID/Info : UTF-8 Plain Text
Language : English
Default : No
Forced : No
Скріншоти







За українські доріжки подяка п.: drakon87, dvorsky, urij546724, Arsenfpu, Sando7
Особиста подяка пану denixx за надану матеріальну допомогу на підтримку цього і майбутніх релізів.
Джерело:


Срібний реліз (на рейтинг впливає 50% завантаженого)
 Трекер:    Зареєстрований   

Завантажити / скачати фільм українською



відео для новачків



 Зареєстрований:   2019-08-19 05:17
 Розмір:   10.75 GB 
 Оцінка фільму:   10/10 (Голосів: 6)
   
Інші релізи
   Коп / Cop (1988) AVC 2xUkr/Eng | Sub Eng Arsenfpu  3 / 0   2.23 GB   2019-08-18 18:31 
   Коп / Cop (1988) Ukr/Eng urij546724  0 / 0   1.44 GB   2012-05-06 19:03 
Anonymous 







2019-08-19 06:21  
Додано доріжку від АМС
Ваш часовий пояс: GMT + 2 Години

Нова тема   Відповісти