Відьми / Spellbinder (1988) 720p Ukr/Eng

Нові коментарі

Нова тема   Відповісти
Автор Повідомлення
staf777 
Попереджень: 1
Попереджень: 1 


З нами з: 16.11.16
Востаннє: 17.12.18
Повідомлень: 1935

2018-09-03 09:58  
Відьми / Spellbinder (1988) 720p Ukr/Eng

Відьми / Spellbinder (1988) 720p Ukr/Eng


Жанр: жахи, трилер, драма, мелодрама
Країна: США



Кінокомпанія: Metro-Goldwyn-Mayer (MGM), Indian Neck Entertainment, Wizan Film Properties Inc.
Режисер: Джанет Грік
Актори: Тім Делі, Келлі Престон, Рік Россовіч, Одра Ліндлі, Ентоні Крівеллі, Діана Белламі, Кері-Хіроюкі Тагава, Джеймс Воткінс, Кайл Ті Геффнер, М. К. Гейне

Сюжет:
Джеф рятує дівчину від її неадекватного приятеля, але сам потрапляє у великі неприємності. Дівчина розповідає йому, що вона колишня відьма, що рятується від гніву своїх колишніх колег. Втім, ніхто не дасть Джефу гарантій, що вона говорить правду.


Тривалість: 01:39:06
Якість:
Відео: 720p
кодек:
розмір кадру: 1280x694
бітрейт: 8000 кб/с

Аудіо # 1:
мова: українська
переклад: багатоголосий закадровий
кодек: 2.0
бітрейт: 192 кб/с

Аудіо # 2:
мова: англійська
переклад: оригінал
кодек: 2.0
бітрейт: 1325 кб/с

Аудіо # 3:
мова: англійська
переклад: коментарі
кодек: 2.0
бітрейт: 192 кб/с
Info
Код:
General
Unique ID                   : 328442220061243679614664618284043636649 (0xF717ABB07C27DC96B94DD2A9EADE8FA9)
Complete name               : K:\Spellbinder (1988) 720p [UKR_ENG] [Hurtom].
Format                      :
Format version              : Version 4 / Version 2
File size                   : 6.72 GiB
Duration                    : 1 h 39 min
Overall bit rate mode       : Variable
Overall bit rate            : 9 707 kb/s
Movie name                  :  Spellbinder (1988) [UKR_ENG] [Hurtom]
Encoded date                : UTC 2018-09-03 07:40:30
Writing application         : v24.0.0 ('Beyond The Pale') 64-bit
Writing library             : libebml v1.3.6 + v1.4.9
Cover                       : Yes
Attachments                 : cover.jpg.jpg

Video
ID                          : 1
Format                      : AVC
Format/Info                 : Advanced Video Codec
Format profile              : [email protected]
Format settings             : CABAC / 9 Ref Frames
Format settings, CABAC      : Yes
Format settings, ReFrames   : 9 frames
Codec ID                    : V_MPEG4/ISO/AVC
Duration                    : 1 h 39 min
Bit rate                    : 8 000 kb/s
Width                       : 1 280 pixels
Height                      : 694 pixels
Display aspect ratio        : 1.85:1
Frame rate mode             : Constant
Frame rate                  : 23.976 (24000/1001) FPS
Color space                 : YUV
Chroma subsampling          : 4:2:0
Bit depth                   : 8 bits
Scan type                   : Progressive
Bits/(Pixel*Frame)          : 0.376
Stream size                 : 5.54 GiB (82%)
Title                       : Spellbinder 1988 720p
Writing library             : core 146 r2538 121396c
Encoding settings           : cabac=1 / ref=9 / deblock=1:-3:-3 / analyse=0x3:0x113 / me=umh / subme=11 / psy=1 / psy_rd=1.00:0.00 / mixed_ref=1 / me_range=48 / chroma_me=1 / trellis=2 / 8x8dct=1 / cqm=0 / deadzone=21,11 / fast_pskip=0 / chroma_qp_offset=-2 / threads=12 / lookahead_threads=2 / sliced_threads=0 / nr=0 / decimate=0 / interlaced=0 / bluray_compat=0 / constrained_intra=0 / bframes=9 / b_pyramid=2 / b_adapt=2 / b_bias=0 / direct=3 / weightb=1 / open_gop=1 / weightp=2 / keyint=240 / keyint_min=23 / scenecut=40 / intra_refresh=0 / rc_lookahead=50 / rc=2pass / mbtree=1 / bitrate=8000 / ratetol=1.0 / qcomp=0.60 / qpmin=0 / qpmax=69 / qpstep=4 / cplxblur=20.0 / qblur=0.5 / vbv_maxrate=14000 / vbv_bufsize=14000 / nal_hrd=none / filler=0 / ip_ratio=1.40 / aq=1:1.10
Language                    : English
Default                     : Yes
Forced                      : No

Audio #1
ID                          : 2
Format                      : AC-3
Format/Info                 : Audio Coding 3
Codec ID                    : A_AC3
Duration                    : 1 h 39 min
Bit rate mode               : Constant
Bit rate                    : 192 kb/s
Channel(s)                  : 2 channels
Channel positions           : Front: L R
Sampling rate               : 48.0 kHz
Frame rate                  : 31.250 FPS (1536 SPF)
Bit depth                   : 16 bits
Compression mode            : Lossy
Stream size                 : 136 MiB (2%)
Title                       : 192 kbps [MVO-UA-AMC]
Language                    : Ukrainian
Service kind                : Complete Main
Default                     : Yes
Forced                      : Yes

Audio #2
ID                          : 3
Format                      :
Format/Info                 : Free Lossless Audio Codec
Codec ID                    : A_FLAC
Duration                    : 1 h 39 min
Bit rate mode               : Variable
Bit rate                    : 1 325 kb/s
Channel(s)                  : 2 channels
Channel positions           : Front: L R
Sampling rate               : 48.0 kHz
Frame rate                  : 11.719 FPS (4096 SPF)
Bit depth                   : 24 bits
Stream size                 : 939 MiB (14%)
Title                       : Original
Writing library             : libFLAC 1.2.1 (UTC 2007-09-17)
Language                    : English
Default                     : No
Forced                      : No

Audio #3
ID                          : 4
Format                      : AC-3
Format/Info                 : Audio Coding 3
Codec ID                    : A_AC3
Duration                    : 1 h 39 min
Bit rate mode               : Constant
Bit rate                    : 192 kb/s
Channel(s)                  : 2 channels
Channel positions           : Front: L R
Sampling rate               : 48.0 kHz
Frame rate                  : 31.250 FPS (1536 SPF)
Bit depth                   : 16 bits
Compression mode            : Lossy
Stream size                 : 136 MiB (2%)
Title                       : Commentary
Language                    : English
Service kind                : Complete Main
Default                     : No
Forced                      : No

Menu
00:00:00.000                : en:00:00:00.000
00:10:43.977                : en:00:10:43.977
00:20:42.783                : en:00:20:42.783
00:31:09.743                : en:00:31:09.743
00:40:27.175                : en:00:40:27.175
00:50:33.197                : en:00:50:33.197
01:00:52.816                : en:01:00:52.816
01:10:34.730                : en:01:10:34.730
01:20:31.952                : en:01:20:31.952
01:31:31.444                : en:01:31:31.444
01:34:50.059                : en:01:34:50.059




Джерело: &
Подяка slavik_v_z за запис звуку з та Arsenfpu за синхронізацію.
Особиста оцінка: 8 - мені сподобалося


Срібний реліз (на рейтинг впливає 50% завантаженого)
 Трекер:    Зареєстрований   

Завантажити / скачати фільм українською



відео для новачків



 Зареєстрований:   2018-09-03 10:26
 Розмір:   6.72 GB 
 Оцінка фільму:   7.8/10 (Голосів: 4)
   
Інші релізи
   Відьми / Spellbinder (1988) Remux 1080p Ukr/Eng staf777  3 / 0   18.43 GB   2016-12-01 14:24 
   Відьми / Spellbinder (1988) Ukr/Eng Arsenfpu  2 / 0   1.93 GB   2016-10-13 19:15 
bot 
робот


З нами з: 30.09.07
Востаннє: 26.05.05
Повідомлень: 20361

2018-09-03 10:26  
Тему перенесено з Анонси релізів до форуму Фільми в HD


staf777

Ваш часовий пояс: GMT + 2 Години

Нова тема   Відповісти