Світське життя / Café Society (2016) AVC Ukr/Eng | Sub Eng

Нові коментарі

Нова тема   Відповісти
Автор Повідомлення
staf777 
Відео Гуртом - підтримка та поширення
Відео Гуртом - підтримка та поширення


З нами з: 16.11.16
Востаннє: 20.04.19
Повідомлень: 2267

2018-09-02 23:36  
Світське життя / Café Society (2016) AVC Ukr/Eng | Sub Eng

Світське життя / Café Society (2016) AVC Ukr/Eng | Sub Eng


Жанр: комедія, драма, романтичний
Країна: США



Кінокомпанія: FilmNation Entertainment, Gravier Productions, Perdido Productions
Режисер: Вуді Аллен
Актори: Дженні Берлін, Стів Карелл, Джесі Айзенберґ, Крістен Стюарт, Блейк Лайвлі, Паркер Поузі, Корі Столл, Кен Стотт, Анна Кемп, Пол Шнайдер

Сюжет:
1930-і роки. Молодий хлопець приїжджає з Нью-Йорка до Голлівуду в надії знайти роботу в кіноіндустрії. У Лос-Анджелесі він закохується і виявляє себе в самому центрі виру бурхливого світського життя і подій, які визначили дух того часу.
Чи знаєте ви, що...

• Стів Карелл замінив Брюса Вілліса після того, як зйомки вже почалися. Спершу повідомлялося, що причиною відходу Вілліса стала зайнятість в іншому проекті, але пізніше з'ясувалося, що його звільнили, оскільки Вуді Аллен і вся знімальна група більше не могли терпіти його поведінку і нездатність запам'ятовувати свої репліки. Це друга спільна робота Карелла з Алленом, оскільки раніше він знявся у режисера у фільмі Мелінда і Мелінда (2004).
• Це перша робота Вуді Аллена знята в цифровому форматі з використанням Sony Cinealta F65.
• Це вже третій раз, коли Крістен Стюарт і Джессі Айзенберг знімаються разом. Раніше вони зіграли у фільмах Парк культури і відпочинку (2009) і Ультраамериканцы (2015).
• Корі Столл раніше знявся у фільмі Вуді Аллена Північ у Парижі (2011).
• Джессі Айзенберг раніше знявся у фільмі Вуді Аллена Римські пригоди (2012 рік).
• Це перший фільм Вуді Аллена за останні вісім років, прокатом якого не буде займатися Sony Pictures Classics.
• Вуді Аллен вперше працює з оператором Вітторіо Стораро.
• Це перший фільм Вуді Аллена, знятий у форматі 2:00:1 — таке співвідношення сторін зазвичай використовується оператором Вітторіо Стораро.
• Джессі Айзенберг, Корі Столл, Стів Карелл, Паркер Поузі і Тоні Сирико — все вже знімалися у Аллена.
• Паркер Поузі раніше знялася у Аллена у фільмі Ірраціональний людина (2015 рік).
Тривалість: 01:36:06
Якість: AVC
Відео:
кодек:
розмір кадру: 1024x512
бітрейт: 2262 кб/с

Аудіо # 1:
мова: українська
переклад: професійний дубльований
кодек: 5.1
бітрейт: 384 кб/с

Аудіо # 2:
мова: англійська
переклад: оригінал
кодек: 5.1
бітрейт: 448 кб/с

Субтитри:
мова: англійська
тип: програмні (м'які)
формат: *.srt
MI
General
Unique ID : 249668150524283470923063499903891988496 (0xBBD45633A39A51B16C570F1C190CE010)
Complete name : H:\» Українське озвучення » Фільми\Комедія\Café Society (2016) AVC [UKR_ENG] [Hurtom].
Format :
Format version : Version 4 / Version 2
File size : 2.08 GiB
Duration : 1 h 36 min
Overall bit rate : 3 096 kb/s
Movie name : Café Society (2016) AVC [UKR_ENG] [Hurtom]
Encoded date : UTC 2018-09-03 06:50:42
Writing application : v24.0.0 ('Beyond The Pale') 64-bit
Writing library : libebml v1.3.6 + v1.4.9
Cover : Yes
Attachments : cover.jpg

Video
ID : 1
Format : AVC
Format/Info : Advanced Video Codec
Format profile : [email protected]
Format settings : CABAC / 9 Ref Frames
Format settings, CABAC : Yes
Format settings, ReFrames : 9 frames
Codec ID : V_MPEG4/ISO/AVC
Duration : 1 h 36 min
Bit rate : 2 262 kb/s
Width : 1 024 pixels
Height : 512 pixels
Display aspect ratio : 2.000
Frame rate mode : Constant
Frame rate : 23.976 FPS
Color space : YUV
Chroma subsampling : 4:2:0
Bit depth : 8 bits
Scan type : Progressive
Bits/(Pixel*Frame) : 0.180
Stream size : 1.52 GiB (73%)
Title : -Lexx-
Writing library : core 146 r2538 121396c
Encoding settings : cabac=1 / ref=9 / deblock=1:-2:-2 / analyse=0x3:0x113 / me=umh / subme=11 / psy=1 / psy_rd=1.00:0.10 / mixed_ref=1 / me_range=48 / chroma_me=1 / trellis=2 / 8x8dct=1 / cqm=0 / deadzone=21,11 / fast_pskip=0 / chroma_qp_offset=-3 / threads=6 / lookahead_threads=2 / sliced_threads=0 / nr=0 / decimate=0 / interlaced=0 / bluray_compat=0 / constrained_intra=0 / bframes=10 / b_pyramid=2 / b_adapt=2 / b_bias=0 / direct=3 / weightb=1 / open_gop=0 / weightp=2 / keyint=240 / keyint_min=23 / scenecut=40 / intra_refresh=0 / rc=2pass / mbtree=0 / bitrate=2262 / ratetol=1.0 / qcomp=0.60 / qpmin=0 / qpmax=69 / qpstep=4 / cplxblur=20.0 / qblur=0.5 / ip_ratio=1.40 / pb_ratio=1.30 / aq=1:1.00
Language : English
Default : Yes
Forced : No

Audio #1
ID : 2
Format : AC-3
Format/Info : Audio Coding 3
Codec ID : A_AC3
Duration : 1 h 36 min
Bit rate mode : Constant
Bit rate : 384 kb/s
Channel(s) : 6 channels
Channel positions : Front: L C R, Side: L R, LFE
Sampling rate : 48.0 kHz
Frame rate : 31.250 FPS (1536 SPF)
Bit depth : 16 bits
Compression mode : Lossy
Stream size : 264 MiB (12%)
Title : Дубляж, iTunes
Language : Ukrainian
Service kind : Complete Main
Default : Yes
Forced : Yes

Audio #2
ID : 3
Format : AC-3
Format/Info : Audio Coding 3
Codec ID : A_AC3
Duration : 1 h 36 min
Bit rate mode : Constant
Bit rate : 448 kb/s
Channel(s) : 6 channels
Channel positions : Front: L C R, Side: L R, LFE
Sampling rate : 48.0 kHz
Frame rate : 31.250 FPS (1536 SPF)
Bit depth : 16 bits
Compression mode : Lossy
Stream size : 308 MiB (14%)
Language : English
Service kind : Complete Main
Default : No
Forced : No

Text
ID : 4
Format : UTF-8
Codec ID : S_TEXT/UTF8
Codec ID/Info : UTF-8 Plain Text
Duration : 1 h 29 min
Bit rate : 95 b/s
Count of elements : 1699
Stream size : 62.7 KiB (0%)
Title : Full
Language : English
Default : No
Forced : No

Menu
00:00:00.000 : en:Chapter 1
00:08:35.848 : en:Chapter 2
00:16:40.165 : en:Chapter 3
00:26:28.628 : en:Chapter 4
00:32:30.990 : en:Chapter 5
00:43:12.506 : en:Chapter 6
00:54:03.865 : en:Chapter 7
01:02:38.755 : en:Chapter 8
01:10:05.659 : en:Chapter 9
01:14:41.101 : en:Chapter 10
01:20:46.174 : en:Chapter 11
01:31:57.094 : en:Chapter 12
Скріншоти:



Джерело: &


 Трекер:    Зареєстрований   

Завантажити / скачати фільм українською



відео для новачків



 Зареєстрований:   2018-09-03 10:08
 Розмір:   2.08 GB 
 Оцінка фільму:   7.9/10 (Голосів: 9)
   
Інші релізи
   Світське життя / Café Society (2016) Remux 1080p Ukr/Eng staf777  1 / 0   23.83 GB   2016-12-02 21:47 
   Світське життя / Café Society (2016) 1080p Ukr/Eng | Sub Eng 11FrYkT  6 / 0   9.66 GB   2016-10-18 20:18 
   Світське життя / Café Society (2016) Gelios  13 / 0   1.45 GB   2016-10-17 23:59 
   Світське життя / Café Society (2016) 720p Ukr/Eng | Sub Eng 11FrYkT  6 / 0   4.51 GB   2016-10-17 23:56 
bot 
робот


З нами з: 30.09.07
Востаннє: 26.05.05
Повідомлень: 21217

2018-09-03 10:06  
Тему перенесено з Анонси релізів до форуму Фільми


staf777

Ваш часовий пояс: GMT + 2 Години

Нова тема   Відповісти