Гарфілд / Garfield (2004) 1080p Ukr/Eng | Sub Eng

Нові коментарі

Нова тема   Відповісти
Автор Повідомлення
staf777 
Попереджень: 1
Попереджень: 1 


З нами з: 16.11.16
Востаннє: 21.10.18
Повідомлень: 1648

2018-09-02 22:52  
Гарфілд / Garfield (2004) 1080p Ukr/Eng | Sub Eng

Гарфілд / Garfield (2004) 1080p Ukr/Eng | Sub Eng


Жанр: комедія, сімейний
Країна: США



Кінокомпанія: Twentieth Century Fox Film Corporation та Davis Entertainment
Режисер: Пітер Х’юітт / Peter Hewitt
Актори: Білл Мюррей, Дженніфер Лав Хьюітт, Бреккін Мейєр, Дебра Мессинг, Івен Арнольд

Сюжет:
Він цинічний, ледачий і взагалі, він - жирний котяра. Господар цього котика, Джон, приносить в будинок миле щеня Оді, і з цієї миті життя Гарфілда йде наперекосяк. Він хоче тільки одного - щоб пес зник з його життя і з його будинку назавжди! Але коли раптово щеня викрадають, Гарфілд, можливо вперше в житті, відчуває лежачу на ньому відповідальність. І він починає діяти...


Тривалість: 01:20:12
Якість: 1080p
Відео:
кодек:
розмір кадру: 1920x1040
бітрейт: 10.2 Mб/с

Аудіо # 1:
мова: українська
переклад: багатоголосий закадровий
кодек: 2.0
бітрейт: 192 кб/с

Аудіо # 2:
мова: англійська
переклад: оригінал
кодек: 5.1
бітрейт: 1509 кб/с

Джерело озвучення:


Субтитри:
мова: англійська
тип: програмні (м'які)
формат: *.srt


MI
General
Unique ID : 128001620038466300021767934789938323503 (0x604C371DA71E74B60F9409338DA4202F)
Complete name : D:\KINOZAL\ Garfield (2004) 1080p [UKR_ENG] [Hurtom].
Format :
Format version : Version 4 / Version 2
File size : 6.67 GiB
Duration : 1 h 20 min
Overall bit rate : 11.9 Mb/s
Movie name : Garfield (2004) 1080p [UKR_ENG] [Hurtom]
Encoded date : UTC 2018-09-03 05:21:12
Writing application : v24.0.0 ('Beyond The Pale') 64-bit
Writing library : libebml v1.3.6 + v1.4.9
Cover : Yes
Attachments : cover.jpg

Video
ID : 1
Format : AVC
Format/Info : Advanced Video Codec
Format profile : [email protected]
Format settings : CABAC / 4 Ref Frames
Format settings, CABAC : Yes
Format settings, ReFrames : 4 frames
Codec ID : V_MPEG4/ISO/AVC
Duration : 1 h 20 min
Bit rate : 10.2 Mb/s
Width : 1 920 pixels
Height : 1 040 pixels
Display aspect ratio : 1.85:1
Frame rate mode : Constant
Frame rate : 23.976 (24000/1001) FPS
Color space : YUV
Chroma subsampling : 4:2:0
Bit depth : 8 bits
Scan type : Progressive
Bits/(Pixel*Frame) : 0.213
Stream size : 5.71 GiB (86%)
Writing library : core 88 r1462 7fcffde
Encoding settings : cabac=1 / ref=4 / deblock=1:-1:-1 / analyse=0x3:0x113 / me=umh / subme=7 / psy=1 / psy_rd=1.00:0.00 / mixed_ref=1 / me_range=16 / chroma_me=1 / trellis=2 / 8x8dct=1 / cqm=0 / deadzone=21,11 / fast_pskip=1 / chroma_qp_offset=-2 / threads=12 / sliced_threads=0 / nr=0 / decimate=1 / mbaff=0 / constrained_intra=0 / bframes=3 / b_pyramid=2 / b_adapt=2 / b_bias=0 / direct=3 / wpredb=1 / wpredp=2 / keyint=250 / keyint_min=25 / scenecut=40 / intra_refresh=0 / rc_lookahead=40 / rc=2pass / mbtree=1 / bitrate=10199 / ratetol=1.0 / qcomp=0.60 / qpmin=10 / qpmax=51 / qpstep=4 / cplxblur=20.0 / qblur=0.5 / vbv_maxrate=50000 / vbv_bufsize=50000 / ip_ratio=1.40 / aq=1:1.00
Language : English
Default : Yes
Forced : Yes

Audio #1
ID : 2
Format : AC-3
Format/Info : Audio Coding 3
Codec ID : A_AC3
Duration : 1 h 20 min
Bit rate mode : Constant
Bit rate : 192 kb/s
Channel(s) : 2 channels
Channel positions : Front: L R
Sampling rate : 48.0 kHz
Frame rate : 31.250 FPS (1536 SPF)
Bit depth : 16 bits
Compression mode : Lossy
Stream size : 110 MiB (2%)
Title : [UA-MVO]
Language : Ukrainian
Service kind : Complete Main
Default : Yes
Forced : Yes

Audio #2
ID : 3
Format :
Format/Info : Digital Theater Systems
Codec ID : A_DTS
Duration : 1 h 20 min
Bit rate mode : Constant
Bit rate : 1 509 kb/s
Channel(s) : 6 channels
Channel positions : Front: L C R, Side: L R, LFE
Sampling rate : 48.0 kHz
Frame rate : 93.750 FPS (512 SPF)
Bit depth : 24 bits
Compression mode : Lossy
Stream size : 866 MiB (13%)
Language : English
Default : No
Forced : No

Text
ID : 4
Format : UTF-8
Codec ID : S_TEXT/UTF8
Codec ID/Info : UTF-8 Plain Text
Duration : 1 h 18 min
Bit rate : 67 b/s
Count of elements : 1005
Stream size : 38.7 KiB (0%)
Language : English
Default : No
Forced : No
Джерело: &


Срібний реліз (на рейтинг впливає 50% завантаженого)
 Трекер:    Зареєстрований   

Завантажити / скачати фільм українською



відео для новачків



 Зареєстрований:   2018-09-03 09:36
 Розмір:   6.67 GB 
 Оцінка фільму:   10/10 (Голосів: 4)
   
Інші релізи
   Гарфілд / Garfield (2004) AVC Ukr/Eng | Sub Eng staf777  4 / 0   1.9 GB   2018-09-02 22:42 
bot 
робот


З нами з: 30.09.07
Востаннє: 26.05.05
Повідомлень: 19984

2018-09-03 09:36  
Тему перенесено з Анонси релізів до форуму Фільми в HD


staf777

lightinsight 
Свій


З нами з: 07.04.14
Востаннє: 21.10.18
Повідомлень: 92

2018-09-03 13:33  
Дякую Happy
Ваш часовий пояс: GMT + 2 Години

Нова тема   Відповісти