Лего Ніндзяго: Майстри Спінжитсу. У розшуку / LEGO Ninjago: Masters of Spinjitzu. Hunted (Сезон 9) (2018) 1080p

Нові коментарі

Нова тема   Відповісти
Останній раз роздавалося maxinator-ukr (2021-04-16)
Автор Повідомлення
sergiyko.5 
Забанено
Забанено


З нами з: 25.02.16
Востаннє: 29.10.20
Повідомлень: 3648

2018-09-02 21:16  


Лего Ніндзяго: Майстри Спінжитсу. У розшуку / LEGO Ninjago: Masters of Spinjitzu. Hunted (Сезон 9) (2018) 1080p

Жанр: дитячий, пригоди, фентезі
Країна: Данія, Сингапур, Канада, США
Кінокомпанія: LEGO, Wil Film

Режисер: Пітер Хауснер, Мартін Скоу

Сюжет:
Майстри бойових мистецтв, кожен з яких володіє унікальним видом зброї та особливими здібностями. Вони здатні здолати будь-якого ворога. Зі світовим злом постійно борються Кай, Джей, Зейн, Ллойд, Нія та їхній духовний лідер і вчитель – Сенсей Ву. Кай - стрімко атакує, його зброя меч. У Джея улюблена зброя нунчаки , він швидкий немов блискавка. Хитрість та спостережливість сильні сторони Зейна, користується метальними зірочками. Ллойд – командир групи, завжди діє на грані можливостей. У Ніє найкраще розвинена інтуїція, проте вона ще й добре володіє вогняними кинджалами. Сенсей Ву – досконалість у всьому, яку намагається передати учням. Хіба всесвітнє зло має шанси на перемогу?

Через рік після втрати Майстра Ву в битві з Руками Часу, в Нью-Ніндзяґо сіті з'являється секретна організація "Сини Гармадона", які хочуть відродити Лорда Гармадона за допомогою Оні-Масок. Ніндзя, на чолі з Ллойдом, не втрачають надію знайти свого Майстра, але у них з'являється нова мета - захистити Королівську Сім'ю та зупинити групу байкерів, які відомі як Сини Гармадона, щоб вони не відродили Лорда Гармадона.




Тривалість: серія: 22:00 (цілком серій: 10 з 10)
Якість:

Відео: кодек: розмір кадру: 1920 х 1080 бітрейт: 3866 кб/с
Аудіо: мова: українська переклад: професійний дубльований кодек: 2.0 бітрейт: 256 кб/с
Джерело озвучення:

Примітка: епізод 92 записаний не до кінця, не вистачає декількох десятків секунд.
Перелік серій

85. Первісток
86. Залізо Текай
87. Ніндзяго без радіо
88. Як збудувати дракона
89. Позолочений шлях
90. Дві брехні, одна правда
91. Найслабший зв'язок
92. Порятунок Віри
93. Уроки для майстра
94. Зелена доля
Про файл:
General
Unique ID : 107347806832936988456234367499835596903 (0x50C26F8125C4E86B1675B8335A38E067)
Complete name : E:\MULTFILMS\LEGO Ninjago Masters of Spinjitsu S09 1080p\S09E01.Firstbourne.1080p..
Format :
Format version : Version 4 / Version 2
File size : 623 MiB
Duration : 21 min 7 s
Overall bit rate : 4 124 kb/s
Movie name : Ninjago Masters of Spinjitsu S09 1080p by sergiyko
Encoded date : UTC 2018-09-02 18:06:05
Writing application : v25.0.0 ('Prog Noir') 64-bit
Writing library : libebml v1.3.6 + v1.4.9

Video
ID : 1
Format : AVC
Format/Info : Advanced Video Codec
Format profile : [email protected]
Format settings : CABAC / 6 Ref Frames
Format settings, CABAC : Yes
Format settings, ReFrames : 6 frames
Codec ID : V_MPEG4/ISO/AVC
Duration : 21 min 7 s
Bit rate : 3 866 kb/s
Width : 1 920 pixels
Height : 1 080 pixels
Display aspect ratio : 16:9
Frame rate mode : Constant
Frame rate : 25.000 FPS
Color space : YUV
Chroma subsampling : 4:2:0
Bit depth : 8 bits
Scan type : Progressive
Bits/(Pixel*Frame) : 0.075
Stream size : 584 MiB (94%)
Title : 85 Первісток
Language : English
Default : Yes
Forced : No

Audio
ID : 2
Format :
Format/Info : Advanced Audio Codec
Format profile : LC
Codec ID : A_AAC-2
Duration : 21 min 7 s
Bit rate : 256 kb/s
Channel(s) : 2 channels
Channel positions : Front: L R
Sampling rate : 44.1 kHz
Frame rate : 43.066 FPS (1024 SPF)
Compression mode : Lossy
Stream size : 38.7 MiB (6%)
Title : DUB | ПлюсПлюс
Language : Ukrainian
Default : Yes
Forced : No
Скріншоти:




Автор запису/ріпу: sergiyko


Бронзовий реліз (на рейтинг впливає 75% завантаженого)
 Трекер:    Зареєстрований   

Завантажити / скачати мультфільм українською



відео для новачків



 Зареєстрований:   2018-10-06 16:40
 Розмір:   6.15 GB 
 Оцінка мультсеріалу:   10/10 (Голосів: 10)
   
sergiyko.5 
Забанено
Забанено


З нами з: 25.02.16
Востаннє: 29.10.20
Повідомлень: 3648

2018-09-10 19:46  
Сезон повний. Приємного перегляду!
Sergio197627 
Новенький


З нами з: 22.11.14
Востаннє: 08.04.21
Повідомлень: 5

2018-09-23 19:30  
Вельми дякую Happy)) Син скаче від щастя))
sergiyko.5 
Забанено
Забанено


З нами з: 25.02.16
Востаннє: 29.10.20
Повідомлень: 3648

2018-10-06 16:41  
Оновив епізод 92, запис серії повний.
ratty 
Новенький


З нами з: 15.07.14
Востаннє: 16.04.21
Повідомлень: 6

2019-02-12 21:58  
А 10-й сезон буде?
Ваш часовий пояс: GMT + 2 Години

Нова тема   Відповісти