Таємне вторгнення / The Secret Invasion (1964) 720p Ukr/Eng | Sub Eng

Нові коментарі

Нова тема   Відповісти
Автор Повідомлення
staf777 
Попереджень: 1
Попереджень: 1 


З нами з: 16.11.16
Востаннє: 13.12.18
Повідомлень: 1909

2018-09-02 20:05  
Таємне вторгнення / The Secret Invasion (1964) 720p Ukr/Eng | Sub Eng

Таємне вторгнення / The Secret Invasion (1964) 720p Ukr/Eng | Sub Eng


Жанр: драма, історичний, бойовик, воєнний
Країна: США



Кінокомпанія: Corman Company, The, San Carlos Productions
Режисер: Роджер Корман
Актори: Стюарт Грейнджер, Раф Валлон, Міккі Руні, Едд Бернс, Генрі Сільва, Заспівала Розін, Вільям Кемпбелл, Енцо Фьермонте, Пітер Коу, Катріна Розан, Джуліо Маркетті, Хельмут Шнайдер, Нен Морріс

Сюжет:
Нацисти ув'язнюють італійського генерала, який планував перебігти на сторону ворога і перевести свою армію до Союзників. Штаб Союзників посилає невелику групу солдатів, щоб звільнити генерала і допомогти йому здійснити свої плани.


Тривалість: 01:37:58
Якість: 720p
Відео:
кодек:
розмір кадру: 1280x544
бітрейт: 10.8 Mб/с

Аудіо # 1:
мова: українська
переклад: багатоголосий закадровий
кодек: 2.0
бітрейт: 192 кб/с

Аудіо # 2:
мова: англійська
переклад: оригінал
кодек: 5.1
бітрейт: 640 кб/с

Субтитри:
мова: англійська
тип: програмні (м'які)
формат: *.srt
Info
General
Unique ID : 131989057878675307276804212509147355078 (0x634C2AFAD6CBAA09A45FBC6C085757C6)
Complete name : D:\KINOZAL\The Secret Invasion (1964) 720p [UKR_ENG] [Hurtom].
Format :
Format version : Version 4 / Version 2
File size : 7.96 GiB
Duration : 1 h 37 min
Overall bit rate : 11.6 Mb/s
Movie name : The Secret Invasion (1964) 720p [UKR_ENG] [Hurtom]
Encoded date : UTC 2018-09-02 06:11:28
Writing application : v24.0.0 ('Beyond The Pale') 64-bit
Writing library : libebml v1.3.6 + v1.4.9
Cover : Yes
Attachments : cover.jpg.jpg

Video
ID : 1
Format : AVC
Format/Info : Advanced Video Codec
Format profile : [email protected]
Format settings : CABAC / 9 Ref Frames
Format settings, CABAC : Yes
Format settings, ReFrames : 9 frames
Codec ID : V_MPEG4/ISO/AVC
Duration : 1 h 37 min
Bit rate : 10.8 Mb/s
Width : 1 280 pixels
Height : 544 pixels
Display aspect ratio : 2.35:1
Frame rate mode : Constant
Frame rate : 23.976 (24000/1001) FPS
Color space : YUV
Chroma subsampling : 4:2:0
Bit depth : 8 bits
Scan type : Progressive
Bits/(Pixel*Frame) : 0.646
Stream size : 7.39 GiB (93%)
Writing library : core 148 r2705kMod 3f5ed56
Encoding settings : cabac=1 / ref=9 / deblock=1:-3:-3 / analyse=0x3:0x133 / me=umh / subme=10 / psy=1 / fade_compensate=0.00 / psy_rd=1.12:0.00 / mixed_ref=1 / me_range=32 / chroma_me=1 / trellis=2 / 8x8dct=1 / cqm=0 / deadzone=21,11 / fast_pskip=1 / chroma_qp_offset=-2 / threads=17 / lookahead_threads=4 / sliced_threads=0 / nr=0 / decimate=1 / interlaced=0 / bluray_compat=0 / constrained_intra=0 / fgo=0 / bframes=10 / b_pyramid=2 / b_adapt=2 / b_bias=0 / direct=3 / weightb=1 / open_gop=0 / weightp=2 / keyint=250 / keyint_min=23 / scenecut=40 / intra_refresh=0 / rc=crf / mbtree=0 / crf=15.7000 / qcomp=0.52 / qpmin=0 / qpmax=69 / qpstep=4 / ip_ratio=1.28 / pb_ratio=1.20 / aq=3:0.67
Language : Russian
Default : Yes
Forced : No

Audio #1
ID : 2
Format : AC-3
Format/Info : Audio Coding 3
Codec ID : A_AC3
Duration : 1 h 37 min
Bit rate mode : Constant
Bit rate : 192 kb/s
Channel(s) : 2 channels
Channel positions : Front: L R
Sampling rate : 48.0 kHz
Frame rate : 31.250 FPS (1536 SPF)
Bit depth : 16 bits
Compression mode : Lossy
Stream size : 134 MiB (2%)
Title : 2.0 192 Kb/s [MVO-AMC]
Language : Ukrainian
Service kind : Complete Main
Default : Yes
Forced : Yes

Audio #2
ID : 3
Format : AC-3
Format/Info : Audio Coding 3
Codec ID : A_AC3
Duration : 1 h 37 min
Bit rate mode : Constant
Bit rate : 640 kb/s
Channel(s) : 2 channels
Channel positions : Front: L R
Sampling rate : 48.0 kHz
Frame rate : 31.250 FPS (1536 SPF)
Bit depth : 16 bits
Compression mode : Lossy
Stream size : 449 MiB (6%)
Language : English
Service kind : Complete Main
Default : No
Forced : No

Text
ID : 4
Format : UTF-8
Codec ID : S_TEXT/UTF8
Codec ID/Info : UTF-8 Plain Text
Duration : 1 h 30 min
Bit rate : 35 b/s
Count of elements : 732
Stream size : 23.9 KiB (0%)
Language : English
Default : No
Forced : No

Menu
00:00:00.000 : en:00:00:00.000
00:10:32.340 : en:00:10:32.340
00:20:59.091 : en:00:20:59.091
00:34:47.544 : en:00:34:47.544
00:53:10.562 : en:00:53:10.562
01:05:27.882 : en:01:05:27.882
01:14:20.164 : en:01:14:20.164
01:25:11.064 : en:01:25:11.064
Скріншоти







Джерело:
Подяка slavik_v_z за запис звуку з amc та Arsenfpu за синхронізацію

Особиста оцінка: 10 - без зайвих вагань рекомендую всім!


Срібний реліз (на рейтинг впливає 50% завантаженого)
 Трекер:    Зареєстрований   

Завантажити / скачати фільм українською



відео для новачків



 Зареєстрований:   2018-09-02 20:05
 Розмір:   7.96 GB 
 Оцінка фільму:   10/10 (Голосів: 4)
   
Інші релізи
bot 
робот


З нами з: 30.09.07
Востаннє: 26.05.05
Повідомлень: 20337

2018-09-02 20:05  
Тему перенесено з Анонси релізів до форуму Фільми в HD


staf777

Ваш часовий пояс: GMT + 2 Години

Нова тема   Відповісти