Моссад / HaMidrasha (Сезон 2) (2017) AVC

Нові коментарі

Нова тема   Відповісти
Автор Повідомлення
sergiyko.5 
VIP


З нами з: 25.02.16
Востаннє: 21.08.19
Повідомлень: 2441

2018-09-02 18:58  
Моссад / HaMidrasha (Сезон 2) (2017) AVC


Моссад / HaMidrasha (Сезон 2) (2017) AVC

Жанр: екшн, драма
Країна: Ізраїль
Кінокомпанія: Sumayoko, Reshet Broadcasting
Режисер: Даніель Сиркін
Актори: Єгуда Леві (Йона Гарарі), Йорам Гаон (Саймон), Лерон Вейсман (Авігайль), Шай Авиви (Міха Шустер), Хана Ласло (Доріс)

Сюжет:
У серіалі розповідається про те, як готують спецагентів однієї з найефективніших і найсекретніших розвідок світу, де вони проходять тренування, хто вчить їх майстерності розвідки і як служба змінює їхні особистість і моральні цінності.

За сюжетом головний герой стрічки Йона Гарар (Йехуда Леві) - один з найкращих агентів організації. Йому доручено підготувати новобранців, яких він тренуватиме на новому, суперсучасному полігоні, що дозволяє працювати в реальних умовах. Щоб виявити здібності кожного курсанта, він постійно влаштовує їм випробування на межі фізичних і психологічних здатностей.




Тривалість: 1 серія: 44:01 (цілком серій: 12 з 12)
Якість:

Відео: кодек: розмір кадру: 1024 х 576 бітрейт: ~ 900 кб/с
Аудіо: мова: українська переклад: багатоголосий закадровий кодек: 2.0 бітрейт: 128 кб/с
Джерело озвучення:
Перелік серій:

01. Урок 1. Містер і місіс Ікс.
02. Урок 2. Протокол саркофаг.
03. Урок 3. Спроба вербування.
04. Урок 4. Знак.
05. Урок 5. Феєрверки.
06. Урок 6. Я ще прийду на твій поріг
07. Урок 7. Крайній Харірі
08. Епізод 8. Створення довіри
09. Епізод 9. Посланець
10. Епізод 10. Поминальна молитва
11. Епізод 11. Крива кришка для розбитого казана
12. Епізод 12. Прощати по божому
Про файл:
General
Unique ID : 254255680968861857352773323702487853337 (0xBF47DCEA58CE55099702F0CF934DA919)
Complete name : D:\Torrents\FILMS\HaMidrasha S02 \HaMidrasha.S02E04..
Format :
Format version : Version 4 / Version 2
File size : 303 MiB
Duration : 43 min 2 s
Overall bit rate : 984 kb/s
Encoded date : UTC 2018-09-02 15:47:53
Writing application : v25.0.0 ('Prog Noir') 64-bit
Writing library : libebml v1.3.6 + v1.4.9

Video
ID : 1
Format : AVC
Format/Info : Advanced Video Codec
Format profile : [email protected]
Format settings : CABAC / 6 Ref Frames
Format settings, CABAC : Yes
Format settings, ReFrames : 6 frames
Codec ID : V_MPEG4/ISO/AVC
Duration : 43 min 2 s
Bit rate : 854 kb/s
Width : 1 024 pixels
Height : 576 pixels
Display aspect ratio : 16:9
Frame rate mode : Constant
Frame rate : 25.000 FPS
Color space : YUV
Chroma subsampling : 4:2:0
Bit depth : 8 bits
Scan type : Progressive
Bits/(Pixel*Frame) : 0.058
Stream size : 263 MiB (87%)
Writing library : core 142 r2491 24e4fed
Encoding settings : cabac=1 / ref=6 / deblock=1:0:0 / analyse=0x3:0x113 / me=hex / subme=7 / psy=1 / psy_rd=1.00:0.00 / mixed_ref=1 / me_range=16 / chroma_me=1 / trellis=1 / 8x8dct=1 / cqm=0 / deadzone=21,11 / fast_pskip=1 / chroma_qp_offset=-2 / threads=12 / lookahead_threads=2 / sliced_threads=0 / nr=0 / decimate=1 / interlaced=0 / bluray_compat=0 / constrained_intra=0 / bframes=3 / b_pyramid=2 / b_adapt=1 / b_bias=0 / direct=1 / weightb=1 / open_gop=0 / weightp=2 / keyint=100 / keyint_min=10 / scenecut=40 / intra_refresh=0 / rc_lookahead=40 / rc=crf / mbtree=1 / crf=22.0 / qcomp=0.60 / qpmin=0 / qpmax=69 / qpstep=4 / vbv_maxrate=2000 / vbv_bufsize=4000 / crf_max=0.0 / nal_hrd=none / filler=0 / ip_ratio=1.41 / aq=1:1.00
Language : English
Default : Yes
Forced : No

Audio
ID : 2
Format :
Format/Info : Advanced Audio Codec
Format profile : LC
Codec ID : A_AAC-2
Duration : 43 min 2 s
Bit rate : 128 kb/s
Channel(s) : 2 channels
Channel positions : Front: L R
Sampling rate : 44.1 kHz
Frame rate : 43.066 FPS (1024 SPF)
Compression mode : Lossy
Delay relative to video : -80 ms
Stream size : 39.4 MiB (13%)
Language : Ukrainian
Default : Yes
Forced : No
Скріншоти:


Бронзовий реліз (на рейтинг впливає 75% завантаженого)
 Трекер:    Зареєстрований   

Завантажити / скачати серіал українською



відео для новачків



 Зареєстрований:   2018-09-06 18:05
 Розмір:   3.88 GB 
 Оцінка серіалу:   8.9/10 (Голосів: 11)
   
Vitt 
Свій


З нами з: 17.01.11
Востаннє: 20.08.19
Повідомлень: 78

2018-09-02 19:26  
А в іншій роздачі https://toloka.to/t94234 коли будуть нові серії?
sergiyko.5 
VIP


З нами з: 25.02.16
Востаннє: 21.08.19
Повідомлень: 2441

2018-09-02 20:19  
Vitt
В тій роздачі нові серії будуть після повтору на ТБ, іноді техніка відмовляє і записались не всі епізоди.

Vitt 
Свій


З нами з: 17.01.11
Востаннє: 20.08.19
Повідомлень: 78

2018-09-02 20:37  
Ясно.
sergiyko.5 
VIP


З нами з: 25.02.16
Востаннє: 21.08.19
Повідомлень: 2441

2018-09-06 18:06  
Додав 10-12 серії.
Forestbomber 
Новенький


З нами з: 30.04.17
Востаннє: 18.08.19
Повідомлень: 1

2018-09-09 15:04  
а що таке зі звуком? Зовсім нічого не зрозуміло, особливо там де є музика
sergiyko.5 
VIP


З нами з: 25.02.16
Востаннє: 21.08.19
Повідомлень: 2441

2018-09-09 17:50  
Forestbomber написано:
а що таке зі звуком? Зовсім нічого не зрозуміло, особливо там де є музика

так, звук поганий, телеканал по ТБ транслює з компресованим звуком, тобто тихші звуки стають гучнішими, а гучні тихшими. На відеохостінгу 1+1 відео з не компресованим звуком, оригінальна доріжка звучить іноді гучніше за переклад. Погана робота звукорежисерів. Пишіть скарги на сайті 2+2 або у фейсбук
https://2plus2.ua/1plus1video/mossad

ivz2306 
Новенький


З нами з: 21.01.11
Востаннє: 19.08.19
Повідомлень: 10

2019-01-31 10:34  
Навіщо таке лайно викладати? Щоб ті, хто хотів подивитися писали скарги на ''2+2"? Це діверсія проти мови.
Ваш часовий пояс: GMT + 2 Години

Нова тема   Відповісти