Формула 1. Сезон 2018. Етап 14. Гран-Прі Італії. Гонка (02.09.2018) HDTV 1080i

Нові коментарі

Нова тема   Відповісти
Автор Повідомлення
sergiyko.5 
VIP


З нами з: 25.02.16
Востаннє: 26.10.20
Повідомлень: 3618

2018-09-02 16:54  
Формула 1. Сезон 2018. Етап 14. Гран-Прі Італії. Гонка (02.09.2018) HDTV 1080i


Формула 1. Сезон 2018. Етап 14. Гран-Прі Італії. Гонка (02.09.2018) HDTV 1080i

Жанр: Перегони Формули 1
Країна: Італія
Телеканал: Перший автомобільний
Коментатор: Максим Подзігун

Опис:
Гонка чотирнадцятого сезону Гран-Прі Італії 2018 року відбулась 2 вересня о 16 годині за київським часом.


Тривалість: 01:48:12
Якість: HDTV

Відео:кодек: розмір кадру: 1920 х 1080 бітрейт: 5533 кб/с
Аудіо: мова: українська кодек: 2.0 бітрейт: 128 кб/с
Про файл:
General
Unique ID : 123986074234560833530759321469300122731 (0x5D46D96C166D3132CFD2AE0B239E246B)
Complete name : D:\Torrents\SPORT\Formula 1\F1.2018.Race\F1.2018.14.Italian.Race.1080i.HDTV.Ukr.
Format :
Format version : Version 4 / Version 2
File size : 4.28 GiB
Duration : 1 h 48 min
Overall bit rate : 5 661 kb/s
Movie name : F1 2018 14 Italian Race 1080i.HDTV by sergiyko
Encoded date : UTC 2018-09-02 14:52:52
Writing application : v25.0.0 ('Prog Noir') 64-bit
Writing library : libebml v1.3.6 + v1.4.9

Video
ID : 1
Format : AVC
Format/Info : Advanced Video Codec
Format profile : [email protected]
Format settings : CABAC / 4 Ref Frames
Format settings, CABAC : Yes
Format settings, ReFrames : 4 frames
Codec ID : V_MPEG4/ISO/AVC
Duration : 1 h 48 min
Bit rate : 5 533 kb/s
Width : 1 920 pixels
Height : 1 080 pixels
Display aspect ratio : 16:9
Frame rate mode : Constant
Frame rate : 25.000 FPS
Standard : Component
Color space : YUV
Chroma subsampling : 4:2:0
Bit depth : 8 bits
Scan type : MBAFF
Scan type, store method : Interleaved fields
Scan order : Top Field First
Bits/(Pixel*Frame) : 0.107
Stream size : 4.18 GiB (98%)
Title : F1 2018 14 Italian Race
Language : English
Default : Yes
Forced : No
Color range : Limited
Color primaries : BT.709
Transfer characteristics : BT.709
Matrix coefficients : BT.709

Audio
ID : 2
Format :
Format/Info : Advanced Audio Codec
Format profile : LC
Codec ID : A_AAC-2
Duration : 1 h 48 min
Bit rate : 125 kb/s
Channel(s) : 2 channels
Channel positions : Front: L R
Sampling rate : 48.0 kHz
Frame rate : 46.875 FPS (1024 SPF)
Compression mode : Lossy
Stream size : 97.0 MiB (2%)
Title : 1 Авто | Максим Подзігун
Language : Ukrainian
Default : Yes
Forced : No
Скріншоти:


Автор запису: sergiyko


 Трекер:    Зареєстрований   

Завантажити / скачати торрент



відео для новачків



 Зареєстрований:   2018-09-02 16:54
 Розмір:   4.28 GB 
 Оцінка:   9.7/10 (Голосів: 27)
   
VicCob 
Свій


З нами з: 16.06.10
Востаннє: 25.10.20
Повідомлень: 58

2018-09-02 18:14  
Дякую!
dimapottertdi 
Новенький


З нами з: 02.09.18
Востаннє: 02.08.20
Повідомлень: 1

2018-09-07 02:02  
Насичений Гран-прі. Дякую!
Ваш часовий пояс: GMT + 2 Години

Нова тема   Відповісти