Ескобар / Loving Pablo (2017) 1080p H.265 Ukr/Eng | Sub Ita

Нові коментарі

Нова тема   Відповісти
Автор Повідомлення
Anonymous 







2018-09-02 17:36  
Ескобар / Loving Pablo (2017) 1080p H.265 Ukr/Eng | Sub Ita

Ескобар / Loving Pablo (2017) 1080p H.265 Ukr/Eng | Sub Ita


Жанр: біографічний, драма, кримінальний
Країна: США, Іспанія, Болгарія
Кінокомпанія: B2Y EOOD
Режисер: Фернандо Леон Де Араноа
Актори: Хав'єр Бардем, Пенелопа Крус, Пітер Сарсгаард, Джулієт Рестрепо, Оскар Хаенада, Девід Валенсіа, Лілліен Бланкеншип, Сара Дерай, Атанас Сребрев, Колін Селмон та інші

Сюжет:
Він виріс на бідних вулицях маленького містечка в Колумбії і все, чому міг там навчитися – це крадіжки. Уже в 20 років Пабло Ескобар (Хав'єр Бардем) зумів завоювати репутацію «чесного» злочинця, що допомагає бідним. Шукаючи найвигідніші способи нелегального заробітку, Ескобар зупинився на наркоторгівлі та виробництві наркотиків. Він створив імперію, якій не було рівних та у 30 років вважався одним з найбагатших людей світу. Стрімкий злет, сповнене кривавих злочинів життя та прогнозоване руйнування налагоджених ним схем відбувалося на очах мільйонів людей, які добровільно або мимоволі були причетні до його бізнесу.

Тривалість: 01:46:00
Якість:

Відео:
кодек: H.265 (HEVC)
розмір кадру: 1920 x 804
бітрейт: 6 871 кб/с
бітова глибина: 10 біт

Увага! Перед завантаженням переконайтесь, що ваш пристрій відтворення (та/або ПЗ) підтримує H.265 (HEVC)

Аудіо # 1:
мова: українська
переклад: професійний дубльований | студія Pie Post Production
кодек: AC-3 2.0
бітрейт: 192 кб/с

Аудіо # 2:
мова: англійська
переклад: оригінал
кодек: 5.1
бітрейт: 1510 кб/с

Субтитри # 1-2: (Forced, SDH)
мова: італійська
тип: програмні (м'які)
формат: *.srt


Info
Код:
General
Unique ID                                : 184740201875040211520041166913692906968 (0x8AFBAB2E1C15C1055B4A36BBE42A35D8)
Complete name                            : Loving Pablo (2017) 1080p H.265 [UKR_ENG] [Hurtom].
Format                                   :
Format version                           : Version 4
File size                                : 6.35 GiB
Duration                                 : 1 h 46 min
Overall bit rate                         : 8 574 kb/s
Movie name                               : Ескобар / Loving Pablo (2017)
Encoded date                             : UTC 2020-03-19 22:21:15
Writing application                      : v20.0.0 ('I Am The Sun') 64-bit
Writing library                          : libebml v1.3.5 + v1.4.8
Cover                                    : Yes
Attachments                              : cover

Video
ID                                       : 1
Format                                   : HEVC
Format/Info                              : High Efficiency Video Coding
Format profile                           : Main [email protected]@High
Codec ID                                 : V_MPEGH/ISO/HEVC
Duration                                 : 1 h 46 min
Bit rate                                 : 6 871 kb/s
Width                                    : 1 920 pixels
Height                                   : 804 pixels
Display aspect ratio                     : 2.40:1
Frame rate mode                          : Constant
Frame rate                               : 24.000 FPS
Color space                              : YUV
Chroma subsampling                       : 4:2:0
Bit depth                                : 10 bits
Bits/(Pixel*Frame)                       : 0.185
Stream size                              : 5.09 GiB (80%)
Title                                    : Ескобар / Loving Pablo (2017)
Writing library                          : x265 2.8+19-bcdc610cf5f0:[Windows][GCC 7.3.0][64 bit] 10bit
Encoding settings                        : cpuid=1111039 / frame-threads=13 / numa-pools=12 / wpp / no-pmode / no-pme / no-psnr / no-ssim / log-level=3 / input-csp=1 / input-res=1920x804 / interlace=0 / total-frames=0 / level-idc=51 / high-tier=1 / uhd-bd=0 / ref=5 / allow-non-conformance / no-repeat-headers / annexb / no-aud / no-hrd / info / hash=0 / no-temporal-layers / open-gop / min-keyint=24 / keyint=240 / gop-lookahead=0 / bframes=8 / b-adapt=2 / b-pyramid / bframe-bias=0 / rc-lookahead=20 / lookahead-slices=5 / scenecut=40 / radl=0 / no-intra-refresh / ctu=64 / min-cu-size=8 / no-rect / no-amp / max-tu-size=32 / tu-inter-depth=1 / tu-intra-depth=1 / limit-tu=0 / rdoq-level=0 / dynamic-rd=0.00 / no-ssim-rd / signhide / no-tskip / nr-intra=0 / nr-inter=0 / no-constrained-intra / strong-intra-smoothing / max-merge=2 / limit-refs=3 / no-limit-modes / me=3 / subme=7 / merange=57 / temporal-mvp / weightp / no-weightb / no-analyze-src-pics / deblock=-4:-4 / sao / no-sao-non-deblock / rd=3 / no-early-skip / rskip / no-fast-intra / no-tskip-fast / no-cu-lossless / no-b-intra / no-splitrd-skip / rdpenalty=0 / psy-rd=2.00 / psy-rdoq=0.00 / no-rd-refine / no-lossless / cbqpoffs=0 / crqpoffs=0 / rc=crf / crf=13.0 / qcomp=0.60 / qpstep=4 / stats-write=0 / stats-read=0 / vbv-maxrate=160000 / vbv-bufsize=160000 / vbv-init=0.9 / crf-max=39.0 / crf-min=0.0 / ipratio=1.40 / pbratio=1.30 / aq-mode=1 / aq-strength=1.00 / cutree / zone-count=0 / no-strict-cbr / qg-size=32 / no-rc-grain / qpmax=69 / qpmin=0 / no-const-vbv / sar=1 / overscan=0 / videoformat=5 / range=0 / colorprim=1 / transfer=1 / colormatrix=1 / chromaloc=0 / display-window=0 / max-cll=0,0 / min-luma=0 / max-luma=1023 / log2-max-poc-lsb=8 / vui-timing-info / vui-hrd-info / slices=1 / no-opt-qp-pps / no-opt-ref-list-length-pps / no-multi-pass-opt-rps / scenecut-bias=0.05 / no-opt-cu-delta-qp / no-aq-motion / no-hdr / no-hdr-opt / no-dhdr10-opt / no-idr-recovery-sei / analysis-reuse-level=5 / scale-factor=0 / refine-intra=0 / refine-inter=0 / refine-mv=0 / no-limit-sao / ctu-info=0 / no-lowpass-dct / refine-mv-type=0 / copy-pic=1 / max-ausize-factor=1.0 / no-dynamic-refine / no-single-sei
Language                                 : English
Default                                  : Yes
Forced                                   : No
Color range                              : Limited
Color primaries                          : BT.709
Transfer characteristics                 : BT.709
Matrix coefficients                      : BT.709

Audio #1
ID                                       : 2
Format                                   : AC-3
Format/Info                              : Audio Coding 3
Commercial name                          : Dolby Digital
Codec ID                                 : A_AC3
Duration                                 : 1 h 45 min
Bit rate mode                            : Constant
Bit rate                                 : 192 kb/s
Channel(s)                               : 2 channels
Channel layout                           : L R
Sampling rate                            : 48.0 kHz
Frame rate                               : 31.250 FPS (1536 SPF)
Compression mode                         : Lossy
Delay relative to video                  : 20 ms
Stream size                              : 145 MiB (2%)
Title                                    : / 2.0 Ch / 192 kbps / ПД / Pie Post Production
Language                                 : Ukrainian
Service kind                             : Complete Main
Default                                  : Yes
Forced                                   : Yes

Audio #2
ID                                       : 3
Format                                   :
Format/Info                              : Digital Theater Systems
Codec ID                                 : A_DTS
Duration                                 : 1 h 46 min
Bit rate mode                            : Constant
Bit rate                                 : 1 509 kb/s
Channel(s)                               : 6 channels
Channel layout                           : C L R Ls Rs LFE
Sampling rate                            : 48.0 kHz
Frame rate                               : 93.750 FPS (512 SPF)
Bit depth                                : 24 bits
Compression mode                         : Lossy
Stream size                              : 1.12 GiB (18%)
Title                                    : / 5.1 Ch / 1509 kbps / Original
Language                                 : English
Default                                  : No
Forced                                   : No

Text #1
ID                                       : 4
Format                                   : UTF-8
Codec ID                                 : S_TEXT/UTF8
Codec ID/Info                            : UTF-8 Plain Text
Duration                                 : 1 s 82 ms
Bit rate                                 : 266 b/s
Count of elements                        : 1
Stream size                              : 36.0 Bytes (0%)
Title                                    : Forced
Language                                 : Italian
Default                                  : No
Forced                                   : No

Text #2
ID                                       : 5
Format                                   : UTF-8
Codec ID                                 : S_TEXT/UTF8
Codec ID/Info                            : UTF-8 Plain Text
Duration                                 : 1 h 39 min
Bit rate                                 : 79 b/s
Count of elements                        : 1424
Stream size                              : 57.9 KiB (0%)
Title                                    : SDH
Language                                 : Italian
Default                                  : No
Forced                                   : No

Menu
00:00:00.000                             : en:00:00:00.000
00:04:04.833                             : en:00:04:04.833
00:09:48.833                             : en:00:09:48.833
00:15:14.292                             : en:00:15:14.292
00:20:05.167                             : en:00:20:05.167
00:26:28.500                             : en:00:26:28.500
00:31:45.917                             : en:00:31:45.917
00:36:37.625                             : en:00:36:37.625
00:41:12.167                             : en:00:41:12.167
00:45:45.125                             : en:00:45:45.125
00:51:45.417                             : en:00:51:45.417
00:57:11.375                             : en:00:57:11.375
01:02:18.958                             : en:01:02:18.958
01:07:56.625                             : en:01:07:56.625
01:13:30.000                             : en:01:13:30.000
01:17:47.542                             : en:01:17:47.542
01:22:54.292                             : en:01:22:54.292
01:28:09.208                             : en:01:28:09.208
01:33:39.500                             : en:01:33:39.500
01:39:44.250                             : en:01:39:44.250
Світлини




Джерело: &
Особиста оцінка: 0 - не дивився


 Трекер:    Зареєстрований   

Завантажити / скачати фільм українською



відео для новачків



 Зареєстрований:   2020-03-20 01:58
 Розмір:   6.35 GB 
 Оцінка фільму:   8/10 (Голосів: 5)
   
Інші релізи
   Ескобар / Loving Pablo (2017) 2xUkr/Eng Arsenfpu  11 / 0   1.61 GB   2020-06-24 08:08 
   Ескобар / Loving Pablo (2017) 1080p Ukr/Eng 11FrYkT  4 / 0   7.21 GB   2019-10-02 16:02 
   Ескобар / Loving Pablo (2017) AVC Ukr/Eng uafilm.tv  6 / 0   1.75 GB   2019-10-02 09:44 
   Ескобар / Loving Pablo (2017) 720p Ukr/Eng 11FrYkT  6 / 0   3.07 GB   2019-10-02 09:32 
   Ескобар / Loving Pablo (2017) Remux 1080p Ukr/Eng staf777  1 / 0   19.21 GB   2018-08-29 00:34 
   Ескобар / Loving Pablo (2017) | Розширена версія uafilm.tv  2 / 0   1.55 GB   2018-07-10 12:51 
oster_ok 
Відео Гуртом - підтримка та поширення
Відео Гуртом - підтримка та поширення


З нами з: 20.11.11
Востаннє: 21.09.20
Повідомлень: 169

2018-09-03 18:48  
-Star-Lord-,
Завантажив з іншого торент-трекеру серію "Краще дзвоніть Солу" в якості 1080p, теж HEVC.
Відео тривалістю 43хв важить 461мб(!!), при цьому якість чудова. Завантажив цей файл на диск, можете глянути на параметри, я в цьому не дуже розбираюся. Думаю, було б, добре теж так зробити і для фільму. Враховуючи тривалість, цей фільм можна було б стиснути до 2Гб.
P.S. Вибачте, що не в тему.

Anonymous 







2020-03-20 01:58  
Якісніші доріжки + італійські субтитри.
Ваш часовий пояс: GMT + 2 Години

Нова тема   Відповісти