День бабака / Groundhog Day (1993) 1080p H.265 2хUkr/Eng | Sub Eng

Нові коментарі

Нова тема   Відповісти
Автор Повідомлення
-Star-Lord- 
VIP


З нами з: 09.08.18
Востаннє: 10.12.18
Повідомлень: 329

2018-09-02 16:29  
День бабака / Groundhog Day (1993) 1080p H.265 2хUkr/Eng | Sub Eng

День бабака / Groundhog Day (1993) 1080p H.265 2хUkr/Eng | Sub Eng


Жанр: комедія, драма, фентезі, романтичний
Країна: США



Кінокомпанія: Columbia Pictures Corporation
Режисер: Гарольд Раміс / Harold Ramis
Актори: Білл Мюррей / Bill Murray, Енді МакДавелл / Andie MacDowell, Кріс Елліот / Chris Elliott, Стівен Тоболовскі / Stephen Tobolowsky, Брайан Дойл-Мюррей / Brian Doyle-Murray, Маріта Ґераті / Marita Geraghty, Анджела Петон / Angela Paton, Рік Дукомман / Rick Ducommun, Рік Овертон / Rick Overton, Робин Дьюк / Robin Duke

Сюжет:
Телевізійний коментатор Філ Коннорс щороку приїжджає в маленьке містечко в штаті Пенсільванія на святкування Дня Бабака. Але цього разу веселість ризикує зайти дуже далеко. Час зіграв з ним злий жарт: він узяв та й зупинився. Тепер на календарі Філа чорніє одна і та ж дата - 2 лютого, з якої він ніяк не може вибратися. Безжурний ведучий намагається отримати вигоду зі свого комічного положення: попереду у нього сила-силенна часу і безтурботне передбачене майбутнє. Віднині з ним не трапиться нічого поганого... і нічого хорошого. У Філа залишилася одна заповітна мрія, проста і нехитра, - 3 лютого..


Тривалість: 01:41:04
Якість:
Відео:
кодек: H.265 (HEVC)
розмір кадру: 1920 х 1040
бітрейт: 8 521 кб/с
бітова глибина: 10 біт
Увага! Перед завантаженням переконайтесь, що ваш пристрій відтворення (та/або ПЗ) підтримує H.265 (HEVC)

Аудіо # 1:
мова: українська
переклад: двоголосий закадровий
кодек: 2.0
бітрейт: 192 кб/с

Аудіо # 2:
мова: українська
переклад: багатоголосий закадровий
кодек: 2.0
бітрейт: 192 кб/с

Аудіо # 3:
мова: англійська
переклад: оригінал
кодек: 5.1
бітрейт: 384 кб/с

Субтитри:
мова: англійська
тип: програмні (м'які)
формат: *.srt
Info
Код:
General
Unique ID                                : 251595898823669087514343045982328974489 (0xBD479B87EF582BBB76EB8AE3B27FEC99)
Complete name                            : F:\Video\Groundhog Day (1993) 1080p H.265 [2xUKR_ENG].
Format                                   :
Format version                           : Version 4 / Version 2
File size                                : 6.56 GiB
Duration                                 : 1 h 41 min
Overall bit rate                         : 9 292 kb/s
Movie name                               : Groundhog Day (1993)
Encoded date                             : UTC 2018-09-02 13:32:35
Writing application                      : v20.0.0 ('I Am The Sun') 32-bit
Writing library                          : libebml v1.3.5 + v1.4.8
Cover                                    : Yes
Attachments                              : Cover.jpg

Video
ID                                       : 1
Format                                   : HEVC
Format/Info                              : High Efficiency Video Coding
Format profile                           : Main [email protected]@Main
Codec ID                                 : V_MPEGH/ISO/HEVC
Duration                                 : 1 h 41 min
Bit rate                                 : 8 521 kb/s
Width                                    : 1 918 pixels
Height                                   : 1 040 pixels
Display aspect ratio                     : 1.85:1
Frame rate mode                          : Constant
Frame rate                               : 23.976 (24000/1001) FPS
Color space                              : YUV
Chroma subsampling                       : 4:2:0
Bit depth                                : 10 bits
Bits/(Pixel*Frame)                       : 0.178
Stream size                              : 6.02 GiB (92%)
Writing library                          : x265 2.6:[Mac OS X][clang 9.1.0][64 bit] 10bit
Encoding settings                        : cpuid=1173503 / frame-threads=3 / wpp / no-pmode / no-pme / no-psnr / no-ssim / log-level=2 / input-csp=1 / input-res=1918x1040 / interlace=0 / total-frames=0 / level-idc=0 / high-tier=1 / uhd-bd=0 / ref=4 / no-allow-non-conformance / no-repeat-headers / annexb / no-aud / no-hrd / info / hash=0 / no-temporal-layers / open-gop / min-keyint=24 / keyint=240 / bframes=4 / b-adapt=2 / b-pyramid / bframe-bias=0 / rc-lookahead=25 / lookahead-slices=4 / scenecut=40 / no-intra-refresh / ctu=64 / min-cu-size=8 / no-rect / no-amp / max-tu-size=32 / tu-inter-depth=1 / tu-intra-depth=1 / limit-tu=0 / rdoq-level=2 / dynamic-rd=0.00 / no-ssim-rd / signhide / no-tskip / nr-intra=0 / nr-inter=0 / no-constrained-intra / no-strong-intra-smoothing / max-merge=3 / limit-refs=3 / limit-modes / me=3 / subme=3 / merange=57 / temporal-mvp / weightp / no-weightb / no-analyze-src-pics / deblock=0:0 / sao / no-sao-non-deblock / rd=4 / no-early-skip / rskip / no-fast-intra / no-tskip-fast / no-cu-lossless / no-b-intra / no-splitrd-skip / rdpenalty=0 / psy-rd=2.00 / psy-rdoq=1.00 / no-rd-refine / analysis-reuse-mode=0 / no-lossless / cbqpoffs=0 / crqpoffs=0 / rc=crf / crf=20.0 / qcomp=0.60 / qpstep=4 / stats-write=0 / stats-read=0 / ipratio=1.40 / pbratio=1.30 / aq-mode=1 / aq-strength=1.00 / cutree / zone-count=0 / no-strict-cbr / qg-size=32 / no-rc-grain / qpmax=69 / qpmin=0 / no-const-vbv / sar=1 / overscan=0 / videoformat=5 / range=0 / colorprim=1 / transfer=1 / colormatrix=1 / chromaloc=0 / display-window=0 / max-cll=0,0 / min-luma=0 / max-luma=1023 / log2-max-poc-lsb=8 / vui-timing-info / vui-hrd-info / slices=1 / no-opt-qp-pps / no-opt-ref-list-length-pps / no-multi-pass-opt-rps / scenecut-bias=0.05 / no-opt-cu-delta-qp / no-aq-motion / no-hdr / no-hdr-opt / no-dhdr10-opt / analysis-reuse-level=5 / scale-factor=0 / refine-intra=0 / refine-inter=0 / refine-mv=0 / no-limit-sao / ctu-info=0 / no-lowpass-dct / refine-mv-type=0 / copy-pic=1
Language                                 : English
Default                                  : Yes
Forced                                   : No
Color range                              : Limited
Color primaries                          : BT.709
Transfer characteristics                 : BT.709
Matrix coefficients                      : BT.709

Audio #1
ID                                       : 2
Format                                   : AC-3
Format/Info                              : Audio Coding 3
Codec ID                                 : A_AC3
Duration                                 : 1 h 41 min
Bit rate mode                            : Constant
Bit rate                                 : 192 kb/s
Channel(s)                               : 2 channels
Channel positions                        : Front: L R
Sampling rate                            : 48.0 kHz
Frame rate                               : 31.250 FPS (1536 SPF)
Bit depth                                : 16 bits
Compression mode                         : Lossy
Stream size                              : 139 MiB (2%)
Title                                    : 1+1
Language                                 : Ukrainian
Service kind                             : Complete Main
Default                                  : Yes
Forced                                   : No

Audio #2
ID                                       : 3
Format                                   : AC-3
Format/Info                              : Audio Coding 3
Codec ID                                 : A_AC3
Duration                                 : 1 h 41 min
Bit rate mode                            : Constant
Bit rate                                 : 192 kb/s
Channel(s)                               : 2 channels
Channel positions                        : Front: L R
Sampling rate                            : 48.0 kHz
Frame rate                               : 31.250 FPS (1536 SPF)
Bit depth                                : 16 bits
Compression mode                         : Lossy
Stream size                              : 139 MiB (2%)
Title                                    : Kanal Ukraina
Language                                 : Ukrainian
Service kind                             : Complete Main
Default                                  : No
Forced                                   : No

Audio #3
ID                                       : 4
Format                                   : AC-3
Format/Info                              : Audio Coding 3
Codec ID                                 : A_AC3
Duration                                 : 1 h 41 min
Bit rate mode                            : Constant
Bit rate                                 : 384 kb/s
Channel(s)                               : 6 channels
Channel positions                        : Front: L C R, Side: L R, LFE
Sampling rate                            : 48.0 kHz
Frame rate                               : 31.250 FPS (1536 SPF)
Bit depth                                : 16 bits
Compression mode                         : Lossy
Stream size                              : 278 MiB (4%)
Title                                    : Original
Language                                 : English
Service kind                             : Complete Main
Default                                  : No
Forced                                   : No

Text
ID                                       : 5
Format                                   : UTF-8
Codec ID                                 : S_TEXT/UTF8
Codec ID/Info                            : UTF-8 Plain Text
Duration                                 : 1 h 37 min
Bit rate                                 : 57 b/s
Count of elements                        : 1325
Stream size                              : 41.0 KiB (0%)
Language                                 : English
Default                                  : Yes
Forced                                   : No

Menu
00:00:00.000                             : :Start
00:00:42.668                             : :A New Producer
00:04:22.679                             : :Punxsutawney
00:07:06.009                             : :Groundhog Day
00:10:26.668                             : :Gobbler's Knob 1
00:13:46.868                             : :Storm Warning
00:19:28.084                             : :Groundhog Day 2
00:24:15.162                             : :Gobbler's Knog 2
00:26:08.150                             : :Groundhog Day 3
00:26:49.566                             : :Gobbler's Knob 3
00:29:48.745                             : :Phil Seeks Help
00:36:46.913                             : :Groundhog Day 4
00:38:49.786                             : :No More Worries
00:42:04.605                             : :Phil Meets Nancy
00:48:40.626                             : :Groundhog Day 5
00:50:23.103                             : :Heist
00:51:22.496                             : :Groundhog Day 6
00:53:47.266                             : :Perfect Guy
00:56:23.463                             : :Gobbler Knob ?
01:00:57.737                             : :Day By Day
01:02:19.194                             : :Phil Kidnpas Phil
01:06:12.427                             : :Convincing Rita
01:09:46.391                             : :Phil's New Image
01:15:26.564                             : :Literature & Music
01:19:02.738                             : :Old Man Saga
01:19:22.216                             : :A Long Winter
01:21:06.695                             : :Guardian Angel
01:28:16.333                             : :Groundhog Dinner
01:31:11.967                             : :Rock-Maninoff
01:35:21.716                             : :Bidding for Phil
01:37:59.665                             : :A Warm Face
Скріншоти




Джерело:
Особиста оцінка: 10 - без зайвих вагань рекомендую всім!
ЗАЛИШАЙТЕСЬ ЯКОМОГА ДОВШЕ НА РОЗДАЧІ!
ЗАВАНТАЖИВ САМ - ДАЙ ЗАВАНТАЖИТИ ІНШИМ


Срібний реліз (на рейтинг впливає 50% завантаженого)
 Трекер:    Зареєстрований   

Завантажити / скачати фільм українською



відео для новачків



 Зареєстрований:   2018-09-02 16:30
 Розмір:   6.56 GB 
 Оцінка фільму:   9.9/10 (Голосів: 8)
   
Інші релізи
   День бабака / Groundhog Day (1993) 4K 2160p 2xUkr/Eng | Sub Eng vital1092  4 / 0   37.86 GB   2017-07-01 01:08 
   День бабака / Groundhog Day (1993) AVC 2xUkr/Eng | Sub Eng BASTERD-94  17 / 0   1.79 GB   2017-02-02 20:30 
   День бабака / Groundhog Day (1993) [MP4, 640x] apvAltisimo  4 / 0   651 MB   2015-12-30 14:15 
   День Бабака / Groundhog Day (1993) 1080р 2хUkr/Eng | Sub Eng Ramirezz  7 / 0   9.45 GB   2014-12-07 11:47 
   День бабака / Groundhog Day (1993) 2хUkr/Eng | Sub Eng karvai0  7 / 1   1.85 GB   2014-01-12 15:15 
   День Бабака / Groundhog Day (1993) 720р 2хUkr/Eng | Sub Eng DiGen  11 / 0   4.35 GB   2011-02-27 19:34 
Ваш часовий пояс: GMT + 2 Години

Нова тема   Відповісти