Вісім міліметрів / 8MM (1999) 1080p Ukr/Eng | Sub Eng

Нові коментарі

Нова тема   Відповісти
Автор Повідомлення
Anonymous 







2018-09-02 14:37  
Вісім міліметрів / 8MM (1999) 1080p Ukr/Eng | Sub Eng

Вісім міліметрів / 8MM (1999) 1080p Ukr/Eng | Sub Eng


Жанр: трилер, драма, детектив
Країна: США, Німеччина



Кінокомпанія: Columbia Pictures Corporation, Hofflund / Polone, Global Entertainment Productions GmbH & Company Medien KG
Режисер: Джоель Шумахер / Joel Schumacher
Актори: Ніколас Кейдж / Nicolas Cage, Хоакін Фенікс / Joaquin Phoenix, Джеймс Ґендолфіні / James Gandolfini, Пітер Стормаре / Peter Stormare, Ентоні Хілд / Anthony Heald, Кріс Баувер / Chris Bauer, Кетрін Кінер / Catherine Keener, Міра Картер / Myra Carter, Емі Мортон / Amy Morton, Дженні Павелл / Jenny Powell, Енні Джі Берд / Anne Gee Byrd, Джек Бітс / Jack Betts та інші

Сюжет:
Світло кінопроектора здатне проникати в найтемніші куточки людської душі. На плівці, яка потрапила в руки приватного детектива, зафіксована сцена звірячого вбивства молодої жінки. Він отримує завдання встановити особу потерпілої і вияснити чи насправді був скоєний злочин. У стрімкому мерехтінні страшних кадрів, головний герой безуспішно намагається розрізнити обличчя режисера плівки. Попри свої бажання, детектив стає частиною жорстокого сценарію, в якому йому відведена роль жертви. У вісьмох міліметрах від небезпеки будь-який необережний крок може виявитися фатальним.


Тривалість: 02:03:19
Якість: 1080p
Відео:
кодек:
розмір кадру: 1920х816
бітрейт: 12.5 Мб/с

Аудіо # 1:
мова: українська
переклад: багатоголосий закадровий
кодек: 2.0
бітрейт: 192 кб/с

Аудіо # 2:
мова: англійська
переклад: оригінал
кодек: 5.1
бітрейт: 1509 кб/с

Субтитри:
мова: англійська
тип: програмні (м'які)
формат: *.srt
Info
General
Unique ID : 192944409668978466279663796255689529294 (0x9127BDDAB36BEC64A4DC5606D6D7D7CE)
Format :
Format version : Version 4 / Version 2
File size : 12.2 GiB
Duration : 2 h 3 min
Overall bit rate : 14.2 Mb/s
Encoded date : UTC 2018-09-02 11:28:55
Writing application : v6.1.0 ('Old Devil') built on Mar 4 2013 09:10:42
Writing library : libebml v1.3.0 + v1.4.0

Video
ID : 1
Format : AVC
Format/Info : Advanced Video Codec
Format profile : [email protected]
Format settings : CABAC / 5 Ref Frames
Format settings, CABAC : Yes
Format settings, ReFrames : 5 frames
Codec ID : V_MPEG4/ISO/AVC
Duration : 2 h 3 min
Bit rate : 12.5 Mb/s
Width : 1 920 pixels
Height : 816 pixels
Display aspect ratio : 2.35:1
Frame rate mode : Constant
Frame rate : 23.976 (24000/1001) FPS
Color space : YUV
Chroma subsampling : 4:2:0
Bit depth : 8 bits
Scan type : Progressive
Bits/(Pixel*Frame) : 0.331
Stream size : 10.5 GiB (86%)
Writing library : core 155 r2901 7d0ff22
Encoding settings : cabac=1 / ref=5 / deblock=1:-3:-3 / analyse=0x3:0x113 / me=umh / subme=8 / psy=1 / psy_rd=1.10:0.00 / mixed_ref=1 / me_range=32 / chroma_me=1 / trellis=2 / 8x8dct=1 / cqm=0 / deadzone=21,11 / fast_pskip=1 / chroma_qp_offset=-2 / threads=18 / lookahead_threads=3 / sliced_threads=0 / nr=0 / decimate=1 / interlaced=0 / bluray_compat=0 / constrained_intra=0 / bframes=3 / b_pyramid=2 / b_adapt=2 / b_bias=0 / direct=3 / weightb=1 / open_gop=0 / weightp=2 / keyint=240 / keyint_min=24 / scenecut=40 / intra_refresh=0 / rc_lookahead=50 / rc=2pass / mbtree=1 / bitrate=12451 / ratetol=1.0 / qcomp=0.60 / qpmin=0 / qpmax=69 / qpstep=4 / cplxblur=20.0 / qblur=0.5 / ip_ratio=1.40 / aq=3:0.75
Default : Yes
Forced : No
Statistics Tags Issue : no_variable_data 1970-01-01 00:00:00 / v6.1.0 ('Old Devil') built on Mar 4 2013 09:10:42 2018-09-02 11:28:55
FromStats_BitRate : 12450855
FromStats_Duration : 02:03:19.476000000
FromStats_FrameCount : 177410
FromStats_StreamSize : 11516226007

Audio #1
ID : 2
Format : AC-3
Format/Info : Audio Coding 3
Codec ID : A_AC3
Duration : 2 h 3 min
Bit rate mode : Constant
Bit rate : 192 kb/s
Channel(s) : 2 channels
Channel positions : Front: L R
Sampling rate : 48.0 kHz
Frame rate : 31.250 FPS (1536 SPF)
Bit depth : 16 bits
Compression mode : Lossy
Stream size : 169 MiB (1%)
Title : UKR (ICTV)
Language : Ukrainian
Service kind : Complete Main
Default : Yes
Forced : Yes

Audio #2
ID : 3
Format :
Format/Info : Digital Theater Systems
Codec ID : A_DTS
Duration : 2 h 3 min
Bit rate mode : Constant
Bit rate : 1 509 kb/s
Channel(s) : 2 channels
Channel positions : Front: L R
Sampling rate : 48.0 kHz
Frame rate : 93.750 FPS (512 SPF)
Bit depth : 24 bits
Compression mode : Lossy
Stream size : 1.30 GiB (11%)
Language : English
Default : No
Forced : No
Statistics Tags Issue : no_variable_data 1970-01-01 00:00:00 / v6.1.0 ('Old Devil') built on Mar 4 2013 09:10:42 2018-09-02 11:28:55
FromStats_BitRate : 1509000
FromStats_Duration : 02:03:19.456000000
FromStats_FrameCount : 693699
FromStats_StreamSize : 1395722388

Text
ID : 4
Format : UTF-8
Codec ID : S_TEXT/UTF8
Codec ID/Info : UTF-8 Plain Text
Language : English
Default : No
Forced : No
Statistics Tags Issue : no_variable_data 1970-01-01 00:00:00 / v6.1.0 ('Old Devil') built on Mar 4 2013 09:10:42 2018-09-02 11:28:55
FromStats_BitRate : 52
FromStats_Duration : 01:58:23.729000000
FromStats_FrameCount : 1442
FromStats_StreamSize : 46347

Menu
00:00:00.000 : en:00:00:00.000
00:00:03.837 : en:00:00:03.837
00:00:27.653 : en:00:00:27.653
00:14:46.844 : en:00:14:46.844
00:30:36.168 : en:00:30:36.168
00:39:56.853 : en:00:39:56.853
00:51:53.902 : en:00:51:53.902
01:00:14.277 : en:01:00:14.277
01:13:22.732 : en:01:13:22.732
01:21:46.735 : en:01:21:46.735
01:28:36.895 : en:01:28:36.895
01:42:48.662 : en:01:42:48.662
01:49:14.339 : en:01:49:14.339
02:00:15.041 : en:02:00:15.041
Скріншоти









За українську доріжку подяка п.: OlegCena, Bulka27
За український постер подяка п. Ham_R
Особиста подяка пану denixx за надану матеріальну допомогу на підтримку цього і майбутніх релізів.
Джерело:


Срібний реліз (на рейтинг впливає 50% завантаженого)
 Трекер:    Зареєстрований   

Завантажити / скачати фільм українською



відео для новачків



 Зареєстрований:   2018-09-02 14:37
 Розмір:   12.19 GB 
 Оцінка фільму:   10/10 (Голосів: 1)
   
Інші релізи
   Вісім міліметрів / 8MM (1999) 720p Ukr/Eng | Sub Eng staf777  5 / 0   4.52 GB   2018-05-23 17:24 
   Вісім міліметрів / 8MM (1999) Ukr/Eng Bulka27  3 / 0   2.02 GB   2014-06-03 22:22 
Ваш часовий пояс: GMT + 2 Години

Нова тема   Відповісти