Відчуження / Учитель на заміну / Detachment (2011) 720p Ukr/Eng

Нові коментарі

Нова тема   Відповісти
Автор Повідомлення
Arch Enemy 
Відео Гуртом - озвучення
Відео Гуртом - озвучення


З нами з: 30.08.12
Востаннє: 21.10.18
Повідомлень: 1552

2018-09-02 13:47  
Відчуження / Учитель на заміну / Detachment (2011) 720p Ukr/Eng

Альтернативний постер
Вікове обмеження: 15+
Жанр: драма
Країна: США
Прем'єра: 25.04.2011



Кінокомпанія: Paper Street Films, Appian Way, Kingsgate Films
Режисер: Тоні Кей
Актори: Едріен Броуді, Марша Ґей Харден, Джеймс Каан, Крістіна Хендрікс, Люсі Ліу, Блайт Деннер, Тім Блек Нельсон, Вільям Петерсен, Самі Ґейл та інші.

Сюжет:
У Генрі справжній талант ладнати з учнями. Щоб уникнути будь-якої емоційної прив'язаності до підопічних, він вирішив ніде не затримуватися на тривалий час. Коли він прибуває на нове місце в державну школу, де вчителі абсолютно байдужі до долі учнів, він швидко стає зразком для наслідування і найпопулярнішим педагогом.


Тривалість: 01:37:39
Якість: 720p (сцен-ріп від MySilu)
Відео:
контейнер:
кодек:
частота кадрів: 23.976 кадрів/сек.
розмір кадру: 1280х690 пікс.
бітрейт: ~4900 кбіт/сек.
бітність: 8 біт.

Аудіо # 1:
мова: українська
озвучення: двоголосе закадрове
кодек:
кількість каналів: 5.1
бітрейт: 1509 кбіт/сек.
частота: 48000 Гц

Аудіо # 2:
мова: англійська, оригінал
кодек:
кількість каналів: 5.1
бітрейт: 1509 кбіт/сек.
частота: 48000 Гц
Скріншоти

Info
General
Unique ID : 336361755760237653887129223952420049325 (0xFD0CEAF2178D447BA3089F756B1411AD)
Complete name : E:\Films\Detachment.2011.Blu-ray.720p.
Format :
Format version : Version 4 / Version 2
File size : 5.40 GiB
Duration : 1 h 37 min
Overall bit rate : 7 919 kb/s
Movie name : Відчуження / Detachment [2011]
Encoded date : UTC 2018-09-18 19:08:14
Writing application : v26.0.0 ('In The Game') 64-bit
Writing library : libebml v1.3.6 + v1.4.9

Video
ID : 1
Format : AVC
Format/Info : Advanced Video Codec
Format profile : [email protected]
Format settings : CABAC / 8 Ref Frames
Format settings, CABAC : Yes
Format settings, ReFrames : 8 frames
Codec ID : V_MPEG4/ISO/AVC
Duration : 1 h 37 min
Bit rate : 4 900 kb/s
Width : 1 280 pixels
Height : 690 pixels
Display aspect ratio : 1.85:1
Frame rate mode : Constant
Frame rate : 23.976 (24000/1001) FPS
Color space : YUV
Chroma subsampling : 4:2:0
Bit depth : 8 bits
Scan type : Progressive
Bits/(Pixel*Frame) : 0.231
Stream size : 3.34 GiB (62%)
Title : Detachment [2011]
Writing library : core 125 r2200 999b753
Encoding settings : cabac=1 / ref=8 / deblock=1:-2:-2 / analyse=0x3:0x133 / me=umh / subme=9 / psy=1 / psy_rd=1.20:0.20 / mixed_ref=1 / me_range=16 / chroma_me=1 / trellis=2 / 8x8dct=1 / cqm=0 / deadzone=21,11 / fast_pskip=1 / chroma_qp_offset=-3 / threads=6 / lookahead_threads=1 / sliced_threads=0 / nr=0 / decimate=0 / interlaced=0 / bluray_compat=0 / constrained_intra=0 / bframes=3 / b_pyramid=2 / b_adapt=2 / b_bias=0 / direct=3 / weightb=1 / open_gop=0 / weightp=2 / keyint=240 / keyint_min=1 / scenecut=40 / intra_refresh=0 / rc_lookahead=60 / rc=2pass / mbtree=1 / bitrate=4900 / ratetol=1.0 / qcomp=0.60 / qpmin=10 / qpmax=51 / qpstep=4 / cplxblur=20.0 / qblur=0.5 / vbv_maxrate=38000 / vbv_bufsize=38000 / nal_hrd=none / ip_ratio=1.40 / aq=1:1.00
Language : English
Default : Yes
Forced : Yes

Audio #1
ID : 2
Format :
Format/Info : Digital Theater Systems
Codec ID : A_DTS
Duration : 1 h 37 min
Bit rate mode : Constant
Bit rate : 1 509 kb/s
Channel(s) : 6 channels
Channel layout : C L R Ls Rs LFE
Sampling rate : 48.0 kHz
Frame rate : 93.750 FPS (512 SPF)
Bit depth : 16 bits
Compression mode : Lossy
Stream size : 1.03 GiB (19%)
Title : AniUA DVO
Language : Ukrainian
Default : Yes
Forced : Yes

Audio #2
ID : 3
Format :
Format/Info : Digital Theater Systems
Codec ID : A_DTS
Duration : 1 h 37 min
Bit rate mode : Constant
Bit rate : 1 509 kb/s
Channel(s) : 6 channels
Channel layout : C L R Ls Rs LFE
Sampling rate : 48.0 kHz
Frame rate : 93.750 FPS (512 SPF)
Bit depth : 16 bits
Compression mode : Lossy
Stream size : 1.03 GiB (19%)
Title : Original
Language : English
Default : No
Forced : No

Озвучено за фінансової підтримки NemoInFire

Джерело озвучення та релізу: AniUA


Авторський реліз (завантажувати можна без реєстрації)
 Трекер:    Зареєстрований   

Завантажити / скачати фільм українською



відео для новачків



 Зареєстрований:   2018-09-18 22:20
 Розмір:   5.4 GB 
 Оцінка фільму:   9.5/10 (Голосів: 19)
   
Інші релізи
barcafan92 
Новенький


З нами з: 11.04.16
Востаннє: 21.10.18
Повідомлень: 2

2018-09-03 12:48  
Один з улюблених фільмів, в якому немає, жодної, зайвої чи порожньої сцени.
doom1976 
Новенький


З нами з: 22.03.16
Востаннє: 21.10.18
Повідомлень: 2

2018-09-17 23:10  
учитель чи вчитель?
Arch Enemy 
Відео Гуртом - озвучення
Відео Гуртом - озвучення


З нами з: 30.08.12
Востаннє: 21.10.18
Повідомлень: 1552

2018-09-18 02:53  
doom1976 написано:
учитель чи вчитель?

учитель.

bot 
робот


З нами з: 30.09.07
Востаннє: 26.05.05
Повідомлень: 19984

2018-09-18 22:20  
Тему перенесено з Анонси релізів до форуму Фільми в HD


Arch Enemy

Arch Enemy 
Відео Гуртом - озвучення
Відео Гуртом - озвучення


З нами з: 30.08.12
Востаннє: 21.10.18
Повідомлень: 1552

2018-09-18 22:24  
Ось і реліз.
Усім приємного перегляду.

10alexs 
VIP


З нами з: 27.02.09
Востаннє: 22.10.18
Повідомлень: 315

2018-09-19 01:11  
NemoInFire, дякую, це чудове кіно, яке варто показати іншим українською
igor911 
Відео Гуртом
Відео Гуртом


З нами з: 18.01.08
Востаннє: 22.10.18
Повідомлень: 11263

2018-09-19 12:05  
Arch Enemy, скріншоти в розділі HD мають бути зроблені у форматі png, заміни, будь ласка.
Arch Enemy 
Відео Гуртом - озвучення
Відео Гуртом - озвучення


З нами з: 30.08.12
Востаннє: 21.10.18
Повідомлень: 1552

2018-09-19 12:23  
igor911 написано:
Arch Enemy, скріншоти в розділі HD мають бути зроблені у форматі png, заміни, будь ласка.

Не помітив, який було вибрано формат, дякую за заувваження.
Виправлено.

Siegfried 
Поважний учасник


З нами з: 01.11.11
Востаннє: 21.10.18
Повідомлень: 198

2018-09-21 10:43  
Меншої "ваги" (в районі 2Гб) планується видання?
Arch Enemy 
Відео Гуртом - озвучення
Відео Гуртом - озвучення


З нами з: 30.08.12
Востаннє: 21.10.18
Повідомлень: 1552

2018-09-21 16:47  
Siegfried написано:
Меншої "ваги" (в районі 2Гб) планується видання?


MutuLI 
Відео Гуртом - фільмокрай
Відео Гуртом - фільмокрай


З нами з: 08.03.09
Востаннє: 21.10.18
Повідомлень: 1430

2018-09-24 20:45  
Фільм психологічно трохи важкий, перегружений всякими моментами, але мені сподобався. Окрема подяка тим хто озвучував, навіть не відчувається що це любительська озвучка.
waldi-hurtom 
VIP


З нами з: 07.10.12
Востаннє: 21.10.18
Повідомлень: 815

2018-10-16 21:58  
Фільм неймовірно важкий для перегляду. Три тижні не можу заставити себе його подивитись. Навіть пролистування дратує страшенно. Мало режисеру напруги - ще й рваний реп-степ використовує, для більшого надриву. Щоб назвати ЦЕ трохи важким треба добряче обкуритися. А щоб з ЦЬОГО тащитись треба, мабуть, ширнутися. Коротше, фільм для тих, у кого ну вс-е-е-е-е-е зашибись. 1 з 10.
hetzendorf 
Відео Гуртом - підтримка та поширення
Відео Гуртом - підтримка та поширення


З нами з: 23.07.15
Востаннє: 22.10.18
Повідомлень: 1311

2018-10-18 18:54  
waldi-hurtom написано:
фільм для тих, у кого ну вс-е-е-е-е-е зашибись.

Отакої! Ні, ну я б не сказав, що в мене якось надто кепсько, але Ви мені таки полестили, дякую!

Фільм, хоча й показує життєве дно, але дуже реалістичний та й зайвий раз розвіює поширені ілюзії про нібито солодке життя без ніяких проблем у Сполучених Штатах Піндостану чи інших найрозвинутіших країн. Ескапістам протипоказаний до перегляду.
8/10

Ваш часовий пояс: GMT + 2 Години

Нова тема   Відповісти