Повернення болотяного чудовиська / The Return of Swamp Thing (1989) Ukr/Eng | Sub Eng

Нові коментарі

Нова тема   Відповісти
Автор Повідомлення
Anonymous 







2018-09-02 09:34  
Повернення болотяного чудовиська / The Return of Swamp Thing (1989) Ukr/Eng | Sub Eng

Повернення болотяного чудовиська / The Return of Swamp Thing (1989) Ukr/Eng | Sub Eng


Жанр: фантастика, жахи, комедія, екшн, пригодницький
Країна: США



Кіностудія / кінокомпанія: Lightyear Entertainment
Режисер: Джим Вайнорські / Jim Wynorski
Актори: Луї Журдан / Louis Jourdan, Гізер Локлір / Heather Locklear, Сара Дуглас / Sarah Douglas, Дік Дурок / Dick Durock, Джо Сагал / Joey Sagal, Ейс Маск / Ace Mask та інші

Сюжет:
Прекрасна Абігейл приїжджає в лабораторію свого вітчима доктора Аркейна, щоб дізнатися таємницю смерті її матері. На жаль, Аркейн хоче позбавити її життя для створення своєї формули безсмертя. На допомогу Абігейл приходить колишній доктор Холланд (а нині болотне чудовисько) і забирає її на болото, де вони незабаром шалено закохуються одне в одного. Але їх роман стає під загрозою, коли Аркейн починає полювання на цю дивну парочку з цілим арсеналом зброї...

Екранізація за коміксами DC Comics.
Оригінальний трейлер:

Рейтинг MPAA: PG-13 - дітям до 13 років перегляд не бажаний

Тривалість: 01:27:02
Якість: [Hurtom]
Відео:
кодек:
розмір кадру: 720х384
бітрейт: 1987 кб/с
джерело: The Return of Swamp Thing (1989) [Ukr.TV4_2xEng] Remux 1080p [Hurtom] by urij54672

Аудіо # 1:
мова: українська
переклад: двоголосий закадровий | ТВ4
кодек: 1.0
бітрейт: 192 кб/с

Аудіо # 2:
мова: англійська
переклад: оригінал
кодек: 2.0
бітрейт: 192 кб/с

Субтитри # 1-2:
мова: англійська (повні, SDH)
тип: програмні (м'які)
формат: *.srt
Info
Код:
General
Complete name               : The Return of Swamp Thing (1989) [Ukr,Eng] [Hurtom].avi
Format                      : AVI
Format/Info                 : Audio Video Interleave
File size                   : 1.45 GiB
Duration                    : 1 h 27 min
Overall bit rate            : 2 385 kb/s
Movie name                  : Повернення болотяного чудовиська / The Return of Swamp Thing (1989) [Ukr,Eng] [Hurtom]
Genre                       : фантастика, жахи, комедія, екшн, пригодницький
Recorded date               : 02.09.2018
Writing application         : VirtualDubModUkr 1.5.10.2 (build 2542/release)
Writing library             : VirtualDubMod build 2542/release
Comment                     : https://toloka.to/t94792

Video
ID                          : 0
Format                      : MPEG-4 Visual
Format profile              : Advanced [email protected]
Format settings             : BVOP1
Format settings, BVOP       : 1
Format settings, QPel       : No
Format settings, GMC        : No warppoints
Format settings, Matrix     : Default (MPEG)
Codec ID                    :
Codec ID/Hint               :
Duration                    : 1 h 27 min
Bit rate                    : 1 987 kb/s
Width                       : 720 pixels
Height                      : 384 pixels
Display aspect ratio        : 1.85:1
Frame rate                  : 24.000 FPS
Color space                 : YUV
Chroma subsampling          : 4:2:0
Bit depth                   : 8 bits
Scan type                   : Progressive
Compression mode            : Lossy
Bits/(Pixel*Frame)          : 0.299
Stream size                 : 1.21 GiB (83%)
Writing library             : 67

Audio #1
ID                          : 1
Format                      : AC-3
Format/Info                 : Audio Coding 3
Commercial name             : Dolby Digital
Codec ID                    : 2000
Duration                    : 1 h 27 min
Bit rate mode               : Constant
Bit rate                    : 192 kb/s
Channel(s)                  : 1 channel
Channel layout              : C
Sampling rate               : 48.0 kHz
Frame rate                  : 31.250 FPS (1536 SPF)
Bit depth                   : 16 bits
Compression mode            : Lossy
Stream size                 : 120 MiB (8%)
Alignment                   : Split accross interleaves
Interleave, duration        : 42  ms (1.00 video frame)
Interleave, preload duratio : 500  ms
Title                       : UKR DVO [TV4]
Service kind                : Complete Main

Audio #2
ID                          : 2
Format                      : AC-3
Format/Info                 : Audio Coding 3
Commercial name             : Dolby Digital
Codec ID                    : 2000
Duration                    : 1 h 27 min
Bit rate mode               : Constant
Bit rate                    : 192 kb/s
Channel(s)                  : 2 channels
Channel layout              : L R
Sampling rate               : 48.0 kHz
Frame rate                  : 31.250 FPS (1536 SPF)
Bit depth                   : 16 bits
Compression mode            : Lossy
Stream size                 : 120 MiB (8%)
Alignment                   : Split accross interleaves
Interleave, duration        : 42  ms (1.00 video frame)
Interleave, preload duratio : 500  ms
Title                       : ENG Original
Service kind                : Complete Main
Скріншоти:
Джерело:
Подяка п.urij546724 за українську доріжку та реліз-першоджерело.



Срібний реліз (на рейтинг впливає 50% завантаженого)
 Трекер:    Зареєстрований   

Завантажити / скачати фільм українською



відео для новачків



 Зареєстрований:   2018-09-02 10:06
 Розмір:   1.45 GB 
 Оцінка фільму:   6.8/10 (Голосів: 9)
   
SaratRich 
VIP


З нами з: 29.05.12
Востаннє: 03.07.20
Повідомлень: 330

2018-09-02 12:13  
А хтось пам'ятає був подібний фільм десь із цих самих часів? Там був "псевдо-халк", стіни пробивав, чи чолов'яга який просто ставав у два рази більшим. І здається там також диологія.
Akio Furukawa 
Свій


З нами з: 02.11.19
Востаннє: 04.07.20
Повідомлень: 81

2020-04-01 00:17  
Ну цей хоч трошки дотепніший і веселіший за попередній.
4/10

Ваш часовий пояс: GMT + 2 Години

Нова тема   Відповісти