Герой-одинак / Last Man Standing (1996) 1080p Ukr/Eng | Sub Eng

Нові коментарі

Нова тема   Відповісти
Автор Повідомлення
Anonymous 







2018-09-02 07:43  
Герой-одинак / Last Man Standing (1996) 1080p Ukr/Eng | Sub Eng

Герой-одинак / Last Man Standing (1996) 1080p Ukr/Eng | Sub Eng


Жанр: бойовик, трилер, драма, кримінальний, вестерн
Країна: США



Кінокомпанія: Eclipse Catering, Lone Wolf, New Line Cinema
Режисер: Уолтер Хілл
Актори: Брюс Вілліс, Брюс Дерн, Вільям Сендерсон, Крістофер Вокен, Дівід Патрік Келлі, Каріна Ломбард, Нед Ейзенберг, Александра Пауерс, Майкл Імперіолі, Кен Дженкінс, Р.Д. Колл, Тед Маркленд, Леслі Манн, Патрік Кілпатрік, Луїс Контрерас, Рейнор Шайні, Тайні Рон, Джон Пекстон, Майкл Кавалері, Ханнес Фрітш, Майкл Страссер, Метт О`Тул, Лін Шей, Ларрі Холт, Аллан Граф, Кассандра Гава, Ренді Холл, Джиммі Ортега, Томас Розалес мол., Крістофер Дойл, Джім Палмер, Керрі Лінч, Пол Лайонс, Майкл МакБрайд, Скотт Пірс, Скотт Страндт, Джім Вілкі, Ендрю Елден, Арні Елперт, Філіп Чіано, Роберт Коффі, Майкл Кордеріо

Сюжет:
Америка в часи «сухого закону». Зайда та наймнанець Джон Сміт на шляху до мексиканського кордону опиняється в маленькому техаському містечку, де панують дві банди ганстерів — ірландця Дойла та італійця Строззі, що ведуть між собою боротьбу за панування в місті і, на даний момент, знаходяться в стані тимчасового миру, але з приїздом Джона все змінюється...
Долучаючись по черзі то до однієї, то до іншої банди, розряджаючи свій пістолет то в одних гангстерів, то в інших, Сміт насправді переслідує свої власні інтереси…


Тривалість: 01:41:06
Якість: 1080p
Відео:
кодек:
розмір кадру: 1920х816
бітрейт: 7 265 кб/с

Аудіо # 1:
мова: українська
переклад: багатоголосий закадровий
кодек: 5.1
бітрейт: 448 кб/с

Аудіо # 2:
мова: англійська
переклад: оригінал
кодек: 5.1
бітрейт: 1509 кб/с

Субтитри:
мова: англійська
тип: програмні (м'які)
формат: *.srt
Info
General
Unique ID : 242445112224943543981965298310740189930 (0xB6653AEB238C56CD903DEB73B88822EA)
Format :
Format version : Version 4 / Version 2
File size : 6.64 GiB
Duration : 1 h 41 min
Overall bit rate : 9 410 kb/s
Encoded date : UTC 2018-09-02 05:35:30
Writing application : v6.1.0 ('Old Devil') built on Mar 4 2013 09:10:42
Writing library : libebml v1.3.0 + v1.4.0

Video
ID : 1
Format : AVC
Format/Info : Advanced Video Codec
Format profile : [email protected]
Format settings : CABAC / 4 Ref Frames
Format settings, CABAC : Yes
Format settings, ReFrames : 4 frames
Codec ID : V_MPEG4/ISO/AVC
Duration : 1 h 41 min
Bit rate : 7 265 kb/s
Width : 1 920 pixels
Height : 816 pixels
Display aspect ratio : 2.35:1
Frame rate mode : Constant
Frame rate : 23.976 FPS
Color space : YUV
Chroma subsampling : 4:2:0
Bit depth : 8 bits
Scan type : Progressive
Bits/(Pixel*Frame) : 0.193
Stream size : 5.13 GiB (77%)
Writing library : core 98 r1649 20cbe10
Encoding settings : cabac=1 / ref=4 / deblock=1:0:0 / analyse=0x3:0x133 / me=umh / subme=9 / psy=1 / psy_rd=1.00:0.00 / mixed_ref=1 / me_range=16 / chroma_me=1 / trellis=2 / 8x8dct=1 / cqm=0 / deadzone=21,11 / fast_pskip=1 / chroma_qp_offset=-2 / threads=6 / sliced_threads=0 / nr=0 / decimate=1 / interlaced=0 / constrained_intra=0 / bframes=3 / b_pyramid=2 / b_adapt=2 / b_bias=0 / direct=3 / weightb=1 / weightp=2 / keyint=250 / keyint_min=25 / scenecut=40 / intra_refresh=0 / rc_lookahead=60 / rc=crf / mbtree=1 / crf=18.0 / qcomp=0.60 / qpmin=10 / qpmax=51 / qpstep=4 / ip_ratio=1.40 / aq=1:1.00
Language : English
Default : Yes
Forced : No

Audio #1
ID : 2
Format : AC-3
Format/Info : Audio Coding 3
Codec ID : A_AC3
Duration : 1 h 41 min
Bit rate mode : Constant
Bit rate : 448 kb/s
Channel(s) : 6 channels
Channel positions : Front: L C R, Side: L R, LFE
Sampling rate : 48.0 kHz
Frame rate : 31.250 FPS (1536 SPF)
Bit depth : 16 bits
Compression mode : Lossy
Stream size : 324 MiB (5%)
Title : UKR (ICTV)
Language : Ukrainian
Service kind : Complete Main
Default : Yes
Forced : Yes

Audio #2
ID : 3
Format :
Format/Info : Digital Theater Systems
Codec ID : A_DTS
Duration : 1 h 41 min
Bit rate mode : Constant
Bit rate : 1 509 kb/s
Channel(s) : 6 channels
Channel positions : Front: L C R, Side: L R, LFE
Sampling rate : 48.0 kHz
Frame rate : 93.750 FPS (512 SPF)
Bit depth : 24 bits
Compression mode : Lossy
Stream size : 1.07 GiB (16%)
Language : English
Default : No
Forced : No

Text
ID : 4
Format : UTF-8
Codec ID : S_TEXT/UTF8
Codec ID/Info : UTF-8 Plain Text
Language : English
Default : No
Forced : No

Menu
00:00:00.000 : en:00:00:00.000
00:03:58.572 : en:00:03:58.572
00:08:32.011 : en:00:08:32.011
00:10:36.427 : en:00:10:36.427
00:12:35.755 : en:00:12:35.755
00:18:08.671 : en:00:18:08.671
00:22:27.888 : en:00:22:27.888
00:25:33.532 : en:00:25:33.532
00:27:22.641 : en:00:27:22.641
00:35:39.054 : en:00:35:39.054
00:37:14.524 : en:00:37:14.524
00:40:34.432 : en:00:40:34.432
00:43:16.677 : en:00:43:16.677
00:46:10.059 : en:00:46:10.059
00:47:47.698 : en:00:47:47.698
00:51:40.681 : en:00:51:40.681
00:54:55.292 : en:00:54:55.292
00:58:26.920 : en:00:58:26.920
01:00:44.057 : en:01:00:44.057
01:04:25.361 : en:01:04:25.361
01:08:33.067 : en:01:08:33.067
01:13:40.916 : en:01:13:40.916
01:19:01.946 : en:01:19:01.946
01:21:35.891 : en:01:21:35.891
01:25:13.483 : en:01:25:13.483
01:30:25.712 : en:01:30:25.712
01:34:55.773 : en:01:34:55.773
01:36:07.220 : en:01:36:07.220
Скріншоти









За українську доріжку подяка п. Arsenfpu
Особиста подяка пану denixx за надану матеріальну допомогу на підтримку цього і майбутніх релізів.

Джерело:


Срібний реліз (на рейтинг впливає 50% завантаженого)
 Трекер:    Зареєстрований   

Завантажити / скачати фільм українською



відео для новачків



 Зареєстрований:   2018-09-02 07:43
 Розмір:   6.64 GB 
 Оцінка фільму:   9.3/10 (Голосів: 3)
   
Інші релізи
   Герой-Одинак / Last Man Standing (1996) 720p Arsenfpu  6 / 0   3.62 GB   2011-08-08 22:28 
   Герой-Одинак / Last Man Standing (1996) Ukr/Eng | sub Eng JACKUS  4 / 0   2.18 GB   2011-05-07 00:01 
Ваш часовий пояс: GMT + 2 Години

Нова тема   Відповісти