Шалені / The Crazies (2010) 1080p 2хUkr/Eng | Sub Eng

Нові коментарі

Нова тема   Відповісти
Автор Повідомлення
Anonymous 







2018-09-02 08:13  
Шалені / The Crazies (2010) 1080p 2хUkr/Eng | Sub Eng

Шалені / The Crazies (2010) 1080p 2хUkr/Eng | Sub Eng


Жанр: жахи, містика, трилер
Країна: США, ОАЕ



Кінокомпанія: Overture Films, Participant Media, Imagenation Abu Dhabi FZ
Режисер: Брек Ейснер
Актори: Тімоті Оліфант, Рада Мітчел, Джо Андерсон, Даніель Панабейкер, Крісті Лінн Сміт, Ліза К. Віатт, Бретт Рікабі, Престон Бейлі, Джон Ейлворд, Джастін Велборн, Ларрі Седар

Сюжет:
На околицях невеликого містечка падає літак, на борту якого знаходиться прототип біологічної зброї, призначення якої створювати хаос у ворога. Прототип потрапляє у водну систему міста, і хаос починається...


Тривалість: 01:40:45
Якість: 1080p
Відео:
кодек:
розмір кадру: 1920х800
бітрейт: 9 746 кб/с

Аудіо # 1:
мова: українська
переклад: багатоголосий закадровий
кодек: 2.0
бітрейт: 192 кб/с

Аудіо # 2:
мова: українська
переклад: багатоголосий закадровий
кодек: 2.0 (з 5.1)
бітрейт: 192 кб/с

Аудіо # 3:
мова: англійська
переклад: оригінал
кодек: 5.1
бітрейт: 640 кб/с

Субтитри:
мова: англійська
тип: програмні (м'які)
формат: *.srt
Info
General
Unique ID : 200801189402041476598418708860790737203 (0x9710E700A88D329289A7677EDDD58933)
Format :
Format version : Version 4 / Version 2
File size : 7.56 GiB
Duration : 1 h 40 min
Overall bit rate : 10.7 Mb/s
Encoded date : UTC 2018-09-02 05:06:03
Writing application : v6.1.0 ('Old Devil') built on Mar 4 2013 09:10:42
Writing library : libebml v1.3.0 + v1.4.0

Video
ID : 1
Format : AVC
Format/Info : Advanced Video Codec
Format profile : [email protected]
Format settings : CABAC / 5 Ref Frames
Format settings, CABAC : Yes
Format settings, ReFrames : 5 frames
Codec ID : V_MPEG4/ISO/AVC
Duration : 1 h 40 min
Bit rate : 9 746 kb/s
Width : 1 920 pixels
Height : 800 pixels
Display aspect ratio : 2.40:1
Frame rate mode : Constant
Frame rate : 23.976 (24000/1001) FPS
Color space : YUV
Chroma subsampling : 4:2:0
Bit depth : 8 bits
Scan type : Progressive
Bits/(Pixel*Frame) : 0.265
Stream size : 6.69 GiB (88%)
Writing library : core 140 r2377 1ca7bb9
Encoding settings : cabac=1 / ref=5 / deblock=1:-3:-2 / analyse=0x3:0x133 / me=umh / subme=11 / psy=1 / psy_rd=1.00:0.00 / mixed_ref=1 / me_range=32 / chroma_me=1 / trellis=2 / 8x8dct=1 / cqm=0 / deadzone=21,11 / fast_pskip=0 / chroma_qp_offset=-2 / threads=12 / lookahead_threads=1 / sliced_threads=0 / nr=0 / decimate=1 / interlaced=0 / bluray_compat=0 / constrained_intra=0 / bframes=5 / b_pyramid=2 / b_adapt=2 / b_bias=0 / direct=3 / weightb=1 / open_gop=0 / weightp=2 / keyint=240 / keyint_min=23 / scenecut=40 / intra_refresh=0 / rc=2pass / mbtree=0 / bitrate=9746 / ratetol=2.0 / qcomp=0.60 / qpmin=0 / qpmax=69 / qpstep=4 / cplxblur=20.0 / qblur=0.5 / ip_ratio=1.40 / pb_ratio=1.30 / aq=2:0.90
Language : English
Default : Yes
Forced : No

Audio #1
ID : 2
Format : AC-3
Format/Info : Audio Coding 3
Codec ID : A_AC3
Duration : 1 h 40 min
Bit rate mode : Constant
Bit rate : 192 kb/s
Channel(s) : 2 channels
Channel positions : Front: L R
Sampling rate : 48.0 kHz
Frame rate : 31.250 FPS (1536 SPF)
Bit depth : 16 bits
Compression mode : Lossy
Stream size : 138 MiB (2%)
Title : UKR (NLO-TV)
Language : Ukrainian
Service kind : Complete Main
Default : Yes
Forced : Yes

Audio #2
ID : 3
Format : AC-3
Format/Info : Audio Coding 3
Codec ID : A_AC3
Duration : 1 h 40 min
Bit rate mode : Constant
Bit rate : 192 kb/s
Channel(s) : 2 channels
Channel positions : Front: L R
Sampling rate : 48.0 kHz
Frame rate : 31.250 FPS (1536 SPF)
Bit depth : 16 bits
Compression mode : Lossy
Stream size : 138 MiB (2%)
Title : UKR (ICTV)
Language : Ukrainian
Service kind : Complete Main
Default : No
Forced : No

Audio #3
ID : 4
Format : AC-3
Format/Info : Audio Coding 3
Codec ID : A_AC3
Duration : 1 h 40 min
Bit rate mode : Constant
Bit rate : 640 kb/s
Channel(s) : 6 channels
Channel positions : Front: L C R, Side: L R, LFE
Sampling rate : 48.0 kHz
Frame rate : 31.250 FPS (1536 SPF)
Bit depth : 16 bits
Compression mode : Lossy
Stream size : 461 MiB (6%)
Title : Eng
Language : English
Service kind : Complete Main
Default : No
Forced : No

Text
ID : 5
Format : UTF-8
Codec ID : S_TEXT/UTF8
Codec ID/Info : UTF-8 Plain Text
Title : Eng full (SDH)
Language : English
Default : No
Forced : No

Menu
00:00:00.000 : :Chapter 01
00:05:01.174 : :Chapter 02
00:11:24.392 : :Chapter 03
00:17:18.287 : :Chapter 04
00:28:02.472 : :Chapter 05
00:35:28.543 : :Chapter 06
00:42:34.552 : :Chapter 07
00:53:03.680 : :Chapter 08
01:00:07.812 : :Chapter 09
01:13:30.322 : :Chapter 10
01:16:27.165 : :Chapter 11
01:33:04.996 : :Chapter 12
Скріншоти









За українські доріжки подяка п.: Sando7, Skiff, bambulla, patriot2305
Особиста подяка пану denixx за надану матеріальну допомогу на підтримку цього і майбутніх релізів.
Джерело:


 Трекер:    Зареєстрований   

Завантажити / скачати фільм українською



відео для новачків



 Зареєстрований:   2018-09-02 08:13
 Розмір:   7.56 GB 
 Оцінка фільму:   10/10 (Голосів: 2)
   
Інші релізи
   Шалені / The Crazies (2010) 2хUkr patriot2305  3 / 0   1.42 GB   2014-04-27 07:05 
   Шалені / The Crazies (2010) 720p Ukr/Eng | Sub Eng patriot2305  1 / 1   3.92 GB   2012-04-12 18:38 
   Шалені / The Crazies (2010) Skiff  1 / 0   1.45 GB   2011-03-06 18:44 
Ваш часовий пояс: GMT + 2 Години

Нова тема   Відповісти