«V» означає Вендетта / V for Vendetta (2005) 1080p H.265 Ukr/Eng | Sub Ukr/Eng

Нові коментарі

Нова тема   Відповісти
Автор Повідомлення
-Star-Lord- 
Поважний учасник


З нами з: 09.08.18
Востаннє: 19.10.18
Повідомлень: 209

2018-09-02 02:24  
«V» означає Вендетта / V for Vendetta (2005) 1080p H.265 Ukr/Eng | Sub Ukr/Eng

«V» означає Вендетта / V for Vendetta (2005) 1080p H.265 Ukr/Eng | Sub Ukr/Eng


Жанр: екшн, драма, трилер
Країна: США, Великобританія, Німеччина



Кінокомпанія: Warner Bros., Virtual Studios, Silver Pictures
Режисер: Джеймс МакТейґ / James McTeigue
Актори: Наталі Портман / Natalie Portman, Г'юґо Вівінґ / Hugo Weaving, Стівен Рі / Stephen Rea, Стівен Фрай / Stephen Fry, Джон Гарт / John Hurt, Тім Піґот-Сміт / Tim Pigott-Smith, Руперт Ґрейвз / Rupert Graves, Роджер Аллам / Roger Allam, Бен Майлз / Ben Miles, Шинед К'юзак / Sinead Cusack

Сюжет:
Дія фільму розгортається в тоталітарній Британії на тлі футуристичних ландшафтів. Наталі Портман грає молоду жінку на ім'я Іві, яку визволяє із смертельної небезпеки таємничий незнайомець, відомий як «V». Неймовірно харизматичний і він майстерно володіє мистецтвом боротьби і шахрайства V розпалює революцію, організувавши вибухи двох визначних пам'яток Лондона і захопивши дві контрольовані урядом радіо-частоти, тим самим спонукаючи співгромадян повстати проти тиранії і пригноблення. У міру того, як Іві дізнається правду про таємничу особу V, вона відкриває багато непізнаного і в собі, виявившись у результаті його несподіваним союзником в боротьбі за свободу і справедливість суспільства, що загрузнуло в корупції і жорстокості.


Тривалість: 02:12:32
Якість:
Відео:
кодек: H.265 (HEVC)
розмір кадру: 1920 х 800
бітрейт: 7 106 кб/с
бітова глибина: 10 біт
Увага! Перед завантаженням переконайтесь, що ваш пристрій відтворення (та/або ПЗ) підтримує H.265 (HEVC)

Аудіо # 1:
мова: українська
переклад: багатоголосий закадровий
кодек: 2.0
бітрейт: 192 кб/с

Аудіо # 2:
мова: англійська
переклад: оригінал
кодек: 5.1
бітрейт: 384 кб/с

Субтитри # 1:
мова: українська
тип: програмні (м'які)
формат: *.srt

Субтитри # 2:
мова: англійська
тип: програмні (м'які)
формат: *.srt
Info
Код:
General
Unique ID                                : 8981760445825600362952781229523436464 (0x6C1D2FACFF693366AFD103289CF83B0)
Complete name                            : F:\Video\V for Vendetta (2005) 1080p H.265 [UKR_ENG].
Format                                   :
Format version                           : Version 4 / Version 2
File size                                : 7.11 GiB
Duration                                 : 2 h 12 min
Overall bit rate                         : 7 685 kb/s
Movie name                               : V for Vendetta (2005)
Encoded date                             : UTC 2018-08-31 09:23:03
Writing application                      : v20.0.0 ('I Am The Sun') 32-bit
Writing library                          : libebml v1.3.5 + v1.4.8
Cover                                    : Yes
Attachments                              : cover.jpg

Video
ID                                       : 1
Format                                   : HEVC
Format/Info                              : High Efficiency Video Coding
Format profile                           : Main [email protected]@High
Codec ID                                 : V_MPEGH/ISO/HEVC
Duration                                 : 2 h 12 min
Bit rate                                 : 7 106 kb/s
Width                                    : 1 920 pixels
Height                                   : 800 pixels
Display aspect ratio                     : 2.40:1
Frame rate mode                          : Constant
Frame rate                               : 23.976 (24000/1001) FPS
Color space                              : YUV
Chroma subsampling                       : 4:2:0
Bit depth                                : 10 bits
Bits/(Pixel*Frame)                       : 0.193
Stream size                              : 6.58 GiB (92%)
Default                                  : Yes
Forced                                   : No
Color range                              : Limited
Color primaries                          : BT.709
Transfer characteristics                 : BT.709
Matrix coefficients                      : BT.709

Audio #1
ID                                       : 2
Format                                   : AC-3
Format/Info                              : Audio Coding 3
Codec ID                                 : A_AC3
Duration                                 : 2 h 12 min
Bit rate mode                            : Constant
Bit rate                                 : 192 kb/s
Channel(s)                               : 2 channels
Channel positions                        : Front: L R
Sampling rate                            : 48.0 kHz
Frame rate                               : 31.250 FPS (1536 SPF)
Bit depth                                : 16 bits
Compression mode                         : Lossy
Stream size                              : 182 MiB (2%)
Title                                    : ICTV
Language                                 : Ukrainian
Service kind                             : Complete Main
Default                                  : Yes
Forced                                   : No

Audio #2
ID                                       : 3
Format                                   : AC-3
Format/Info                              : Audio Coding 3
Codec ID                                 : A_AC3
Duration                                 : 2 h 12 min
Bit rate mode                            : Constant
Bit rate                                 : 384 kb/s
Channel(s)                               : 6 channels
Channel positions                        : Front: L C R, Side: L R, LFE
Sampling rate                            : 48.0 kHz
Frame rate                               : 31.250 FPS (1536 SPF)
Bit depth                                : 16 bits
Compression mode                         : Lossy
Stream size                              : 364 MiB (5%)
Title                                    : Original
Language                                 : English
Service kind                             : Complete Main
Default                                  : No
Forced                                   : No

Text #1
ID                                       : 4
Format                                   : UTF-8
Codec ID                                 : S_TEXT/UTF8
Codec ID/Info                            : UTF-8 Plain Text
Duration                                 : 2 h 11 min
Bit rate                                 : 115 b/s
Count of elements                        : 1704
Stream size                              : 112 KiB (0%)
Language                                 : Ukrainian
Default                                  : Yes
Forced                                   : No

Text #2
ID                                       : 5
Format                                   : UTF-8
Codec ID                                 : S_TEXT/UTF8
Codec ID/Info                            : UTF-8 Plain Text
Duration                                 : 2 h 3 min
Bit rate                                 : 81 b/s
Count of elements                        : 1821
Stream size                              : 74.1 KiB (0%)
Language                                 : English
Default                                  : No
Forced                                   : No

Menu
00:00:00.000                             : :Chapter 01
00:02:24.310                             : :Chapter 02
00:09:07.880                             : :Chapter 03
00:11:00.409                             : :Chapter 04
00:16:26.985                             : :Chapter 05
00:21:56.648                             : :Chapter 06
00:25:01.500                             : :Chapter 07
00:30:09.808                             : :Chapter 08
00:35:37.468                             : :Chapter 09
00:40:37.435                             : :Chapter 10
00:43:14.258                             : :Chapter 11
00:48:02.713                             : :Chapter 12
00:49:40.978                             : :Chapter 13
00:54:11.081                             : :Chapter 14
00:56:39.562                             : :Chapter 15
01:00:31.294                             : :Chapter 16
01:04:47.049                             : :Chapter 17
01:09:41.177                             : :Chapter 18
01:12:07.489                             : :Chapter 19
01:18:49.725                             : :Chapter 20
01:21:13.034                             : :Chapter 21
01:26:01.656                             : :Chapter 22
01:29:20.688                             : :Chapter 23
01:32:08.356                             : :Chapter 24
01:36:21.275                             : :Chapter 25
01:39:28.462                             : :Chapter 26
01:44:17.584                             : :Chapter 27
01:48:50.357                             : :Chapter 28
01:52:03.717                             : :Chapter 29
01:53:57.664                             : :Chapter 30
01:57:51.564                             : :Chapter 31
01:59:35.334                             : :Chapter 32
02:04:38.471                             : :Chapter 33
Скріншоти




Джерело:
Особиста оцінка: 10 - без зайвих вагань рекомендую всім!
ЗАЛИШАЙТЕСЬ ЯКОМОГА ДОВШЕ НА РОЗДАЧІ!
ЗАВАНТАЖИВ САМ - ДАЙ ЗАВАНТАЖИТИ ІНШИМ


 Трекер:    Зареєстрований   

Завантажити / скачати фільм українською



відео для новачків



 Зареєстрований:   2018-09-02 02:24
 Розмір:   7.11 GB 
 Оцінка фільму:   9.7/10 (Голосів: 7)
   
Ваш часовий пояс: GMT + 2 Години

Нова тема   Відповісти