12 років рабства / 12 Years a Slave (2013) 1080p H.265 2xUkr/Eng | Sub Eng

Нові коментарі

Нова тема   Відповісти
Автор Повідомлення
-Star-Lord- 
VIP


З нами з: 09.08.18
Востаннє: 17.12.18
Повідомлень: 351

2018-09-02 01:15  
12 років рабства / 12 Years a Slave (2013) 1080p H.265 2xUkr/Eng | Sub Eng

12 років рабства / 12 Years a Slave (2013) 1080p H.265 2xUkr/Eng | Sub Eng


Жанр: біографічний, драма, історичний
Країна: США, Великобританія



Кінокомпанія: Regency Enterprises, River Road Entertainment, Plan B Entertainment
Режисер: Стів Макквін / Steve McQueen
Актори: Чіветел Еджіофор / Chiwetel Ejiofor, Майкл Фассбендер / Michael Fassbender, Бред Пітт / Brad Pitt, Бенедикт Камбербетч / Benedict Cumberbatch, Пол Дано / Paul Dano, Пол Джаматті / Paul Giamatti, Люпіта Ніонго / Lupita Nyong'o, Сара Полсон / Sarah Paulson та інші.

Сюжет:
Драма про реального чоловіка, що був рабом не тільки людини, але і свого століття. У 1800 році в Новому Орлеані, як і на загальній території США, процвітало рабство. Це горе не обійшло і головного героя фільму, цілком реальну особистість, по імені Соломон Нортап, чорношкірого скрипаля. Живучі в Нью-Йорку, як цілком вільна особистість, Соломон несподівано був викрадений і перевезений в Новий Орлеан, де його продали в рабство. Намагаючись не просто вижити, а й зберегти власну гідність, герой фільму проходить безліч випробувань. Йому доведеться витримати вантаж ненависті і расового презирства.......


Тривалість: 02:14:10
Якість:
Відео:
кодек: H.265 (HEVC)
розмір кадру: 1920 х 800
бітрейт: 7 502 кб/с
бітова глибина: 10 біт
Увага! Перед завантаженням переконайтесь, що ваш пристрій відтворення (та/або ПЗ) підтримує H.265 (HEVC)

Аудіо # 1:
мова: українська
переклад: багатоголосий закадровий
кодек: 2.0
бітрейт: 192 кб/с

Аудіо # 2:
мова: українська
переклад: багатоголосий закадровий
кодек: 2.0
бітрейт: 192 кб/с

Аудіо # 3:
мова: англійська
переклад: оригінал
кодек: 5.1
бітрейт: 640 кб/с

Субтитри:
мова: англійська
тип: програмні (м'які)
формат: *.srt
Info
Код:
General
Unique ID                                : 200116070758210782657736701640391052357 (0x968CF40BA439D31507A962164358CC45)
Complete name                            : F:\Video\12 Years a Slave (2013) 1080p H.265 [2xUKR_ENG].
Format                                   :
Format version                           : Version 4 / Version 2
File size                                : 7.99 GiB
Duration                                 : 2 h 14 min
Overall bit rate                         : 8 528 kb/s
Movie name                               : 12 Years a Slave (2013)
Encoded date                             : UTC 2018-08-31 10:55:10
Writing application                      : v20.0.0 ('I Am The Sun') 32-bit
Writing library                          : libebml v1.3.5 + v1.4.8
Cover                                    : Yes
Attachments                              : cover.jpg

Video
ID                                       : 1
Format                                   : HEVC
Format/Info                              : High Efficiency Video Coding
Format profile                           : Main [email protected]@High
Codec ID                                 : V_MPEGH/ISO/HEVC
Duration                                 : 2 h 14 min
Bit rate                                 : 7 502 kb/s
Width                                    : 1 920 pixels
Height                                   : 800 pixels
Display aspect ratio                     : 2.40:1
Frame rate mode                          : Constant
Frame rate                               : 23.976 (24000/1001) FPS
Color space                              : YUV
Chroma subsampling                       : 4:2:0 (Type 0)
Bit depth                                : 10 bits
Bits/(Pixel*Frame)                       : 0.204
Stream size                              : 7.03 GiB (88%)
Writing library                          : x265 2.7+25-e1ed4d609b52:[Windows][GCC 7.3.0][64 bit] 10bit
Encoding settings                        : cpuid=1050111 / frame-threads=4 / numa-pools=4 / wpp / no-pmode / no-pme / no-psnr / no-ssim / log-level=2 / input-csp=1 / input-res=1920x800 / interlace=0 / total-frames=0 / level-idc=51 / high-tier=1 / uhd-bd=0 / ref=5 / no-allow-non-conformance / no-repeat-headers / annexb / no-aud / no-hrd / info / hash=0 / no-temporal-layers / open-gop / min-keyint=23 / keyint=240 / gop-lookahead=0 / bframes=8 / b-adapt=2 / b-pyramid / bframe-bias=0 / rc-lookahead=40 / lookahead-slices=5 / scenecut=40 / radl=0 / no-intra-refresh / ctu=64 / min-cu-size=8 / rect / no-amp / max-tu-size=32 / tu-inter-depth=3 / tu-intra-depth=3 / limit-tu=4 / rdoq-level=2 / dynamic-rd=0.00 / no-ssim-rd / signhide / no-tskip / nr-intra=0 / nr-inter=0 / no-constrained-intra / no-strong-intra-smoothing / max-merge=3 / limit-refs=3 / limit-modes / me=3 / subme=7 / merange=57 / temporal-mvp / weightp / weightb / no-analyze-src-pics / deblock=-3:-3 / no-sao / no-sao-non-deblock / rd=4 / no-early-skip / rskip / no-fast-intra / no-tskip-fast / no-cu-lossless / no-b-intra / no-splitrd-skip / rdpenalty=0 / psy-rd=2.00 / psy-rdoq=1.00 / no-rd-refine / no-lossless / cbqpoffs=0 / crqpoffs=0 / rc=crf / crf=18.0 / qcomp=0.60 / qpstep=4 / stats-write=0 / stats-read=0 / vbv-maxrate=160000 / vbv-bufsize=160000 / vbv-init=0.9 / crf-max=0.0 / crf-min=0.0 / ipratio=1.40 / pbratio=1.30 / aq-mode=1 / aq-strength=1.00 / cutree / zone-count=1 / zones: / start-frame=184327 / end-frame=193009 / qp=35 / no-strict-cbr / qg-size=32 / no-rc-grain / qpmax=69 / qpmin=0 / no-const-vbv / sar=1 / overscan=0 / videoformat=5 / range=0 / colorprim=2 / transfer=2 / colormatrix=1 / chromaloc=1 / chromaloc-top=0 / chromaloc-bottom=0 / display-window=0 / max-cll=0,0 / min-luma=0 / max-luma=1023 / log2-max-poc-lsb=8 / vui-timing-info / vui-hrd-info / slices=1 / no-opt-qp-pps / no-opt-ref-list-length-pps / no-multi-pass-opt-rps / scenecut-bias=0.05 / no-opt-cu-delta-qp / no-aq-motion / no-hdr / no-hdr-opt / no-dhdr10-opt / no-idr-recovery-sei / analysis-reuse-level=5 / scale-factor=0 / refine-intra=0 / refine-inter=0 / refine-mv=0 / no-limit-sao / ctu-info=0 / no-lowpass-dct / refine-mv-type=0 / copy-pic=1 / max-ausize-factor=1.0 / no-dynamic-refine / no-single-sei
Default                                  : Yes
Forced                                   : Yes
Color range                              : Limited
Matrix coefficients                      : BT.709

Audio #1
ID                                       : 2
Format                                   : AC-3
Format/Info                              : Audio Coding 3
Codec ID                                 : A_AC3
Duration                                 : 2 h 14 min
Bit rate mode                            : Constant
Bit rate                                 : 192 kb/s
Channel(s)                               : 2 channels
Channel positions                        : Front: L R
Sampling rate                            : 48.0 kHz
Frame rate                               : 31.250 FPS (1536 SPF)
Bit depth                                : 16 bits
Compression mode                         : Lossy
Stream size                              : 184 MiB (2%)
Title                                    : Cine+
Language                                 : Ukrainian
Service kind                             : Complete Main
Default                                  : Yes
Forced                                   : No

Audio #2
ID                                       : 3
Format                                   : AC-3
Format/Info                              : Audio Coding 3
Codec ID                                 : A_AC3
Duration                                 : 2 h 14 min
Bit rate mode                            : Constant
Bit rate                                 : 192 kb/s
Channel(s)                               : 2 channels
Channel positions                        : Front: L R
Sampling rate                            : 48.0 kHz
Frame rate                               : 31.250 FPS (1536 SPF)
Bit depth                                : 16 bits
Compression mode                         : Lossy
Stream size                              : 184 MiB (2%)
Title                                    : Line
Language                                 : Ukrainian
Service kind                             : Complete Main
Default                                  : No
Forced                                   : No

Audio #3
ID                                       : 4
Format                                   : AC-3
Format/Info                              : Audio Coding 3
Codec ID                                 : A_AC3
Duration                                 : 2 h 14 min
Bit rate mode                            : Constant
Bit rate                                 : 640 kb/s
Channel(s)                               : 6 channels
Channel positions                        : Front: L C R, Side: L R, LFE
Sampling rate                            : 48.0 kHz
Frame rate                               : 31.250 FPS (1536 SPF)
Bit depth                                : 16 bits
Compression mode                         : Lossy
Stream size                              : 614 MiB (8%)
Language                                 : English
Service kind                             : Complete Main
Default                                  : No
Forced                                   : No

Text
ID                                       : 5
Format                                   : UTF-8
Codec ID                                 : S_TEXT/UTF8
Codec ID/Info                            : UTF-8 Plain Text
Duration                                 : 2 h 12 min
Bit rate                                 : 43 b/s
Count of elements                        : 1486
Stream size                              : 42.0 KiB (0%)
Language                                 : English
Default                                  : Yes
Forced                                   : No

Menu
00:00:00.000                             : en:00:00:00.000
00:06:02.862                             : en:00:06:02.862
00:10:13.530                             : en:00:10:13.530
00:12:58.778                             : en:00:12:58.778
00:16:24.650                             : en:00:16:24.650
00:19:18.866                             : en:00:19:18.866
00:25:01.709                             : en:00:25:01.709
00:27:48.458                             : en:00:27:48.458
00:32:07.968                             : en:00:32:07.968
00:36:07.874                             : en:00:36:07.874
00:39:39.127                             : en:00:39:39.127
00:45:16.714                             : en:00:45:16.714
00:47:36.145                             : en:00:47:36.145
00:52:26.977                             : en:00:52:26.977
00:54:34.188                             : en:00:54:34.188
00:59:34.029                             : en:00:59:34.029
01:01:47.704                             : en:01:01:47.704
01:06:04.544                             : en:01:06:04.544
01:09:55.691                             : en:01:09:55.691
01:12:47.989                             : en:01:12:47.989
01:15:27.690                             : en:01:15:27.690
01:18:31.874                             : en:01:18:31.874
01:21:08.489                             : en:01:21:08.489
01:23:46.688                             : en:01:23:46.688
01:26:25.972                             : en:01:26:25.972
01:28:18.877                             : en:01:28:18.877
01:31:22.519                             : en:01:31:22.519
01:34:10.144                             : en:01:34:10.144
01:38:14.013                             : en:01:38:14.013
01:41:50.313                             : en:01:41:50.313
01:45:18.896                             : en:01:45:18.896
01:53:09.908                             : en:01:53:09.908
01:54:46.505                             : en:01:54:46.505
02:00:22.215                             : en:02:00:22.215
02:04:07.398                             : en:02:04:07.398
02:07:25.721                             : en:02:07:25.721
Скріншоти




Джерело:
Особиста оцінка: 0 - не дивився
ЗАЛИШАЙТЕСЬ ЯКОМОГА ДОВШЕ НА РОЗДАЧІ!
ЗАВАНТАЖИВ САМ - ДАЙ ЗАВАНТАЖИТИ ІНШИМ


 Трекер:    Зареєстрований   

Завантажити / скачати фільм українською



відео для новачків



 Зареєстрований:   2018-09-02 01:15
 Розмір:   7.99 GB 
 Оцінка фільму:   10/10 (Голосів: 3)
   
Інші релізи
Ваш часовий пояс: GMT + 2 Години

Нова тема   Відповісти