Матриця: Трилогія / The Matrix: Trilogy (1999-2003) 1080p H.265 2xUkr/Eng | Sub Ukr/Eng

Нові коментарі

Нова тема   Відповісти
Автор Повідомлення
Anonymous 







2018-09-02 02:02  
Матриця: Трилогія / The Matrix: Trilogy (1999-2003) UHD 1080p H.265 2xUkr/Eng | Sub Ukr/Eng

Матриця: Трилогія / The Matrix: Trilogy (1999-2003) 1080p H.265 2xUkr/Eng | Sub Ukr/Eng

Жанр: фантастика, бойовик, пригодницький
Країна: США, Австралія
Кінокомпанія: Groucho II Film Partnership, Silver Pictures, Village Roadshow Pictures, Warner Bros. Pictures
Режисер: Енді Вачовскі (Andy Wachowski), Ларі Вачовскі (Larry Wachowski )
Актори: Кіану Рівз (Keanu Reeves), Лоуренс Фішберн (Laurence Fishburne), Керрі-Енн Мос (Carrie-Anne Moss), Хьюго Уівінг (Hugo Weaving), Глорія Фостер (Gloria Foster), Джо Пантоліано (Joe Pantoliano), Маркус Чонг (Marcus Chong), Джуліан Араханга (Julian Arahanga), Метт Доран (Matt Doran), Белінда МакКлорі (Belinda McClory), Ентоні Рей Паркер (Anthony Ray Parker) та інші.

1. 2. 3.

1. Матриця / The Matrix (1999) UHD 1080p H.265 Ukr/Eng | Sub Ukr/Eng
Матриця / The Matrix (1999) UHD 1080p H.265 Ukr/Eng | Sub Ukr/Eng

Матриця: Трилогія / The Matrix: Trilogy (1999-2003) 1080p H.265 2xUkr/Eng | Sub Ukr/Eng


Сюжет:
Хакер Томас Андерсон (Рiвз) одного дня опиняeться перед вибором, запропонованим таeмничими незнайомцями.
Вiн може продовжувати жити у своeму звичайному свiтi, який насправдi - лише сон. Або ж поглянути в обличчя страшнiй реальностi....

Тривалість: 02:16:18
Якість: UHD

Відео:
кодек: H.265 (HEVC)
розмір кадру: 1920 x 800
бітрейт: 9 443 кб/с
бітова глибина: 10 біт

Увага! Перед завантаженням переконайтесь, що ваш пристрій відтворення (та/або ПЗ) підтримує H.265 (HEVC)

Аудіо # 1:
мова: українська
переклад: багатоголосий закадровий , ,
кодек: AC-3 5.1
бітрейт: 448 кб/с

Аудіо # 2:
мова: англійська
переклад: оригінал
кодек: 5.1
бітрейт: 1511 кб/с

Аудіо # 3:
мова: англійська
переклад: оригінал | Коментарі Корнела Веста і Кена Вілберга
кодек: AC-3 2.0
бітрейт: 192 кб/с

Аудіо # 4:
мова: англійська
переклад: оригінал | Коментарі критиків Тома МакКарті, Джона Паверса і Девіда Томсона
кодек: AC-3 2.0
бітрейт: 192 кб/с

Субтитри # 1: (Full by w2958l)
мова: українська
тип: програмні (м'які)
формат: *.srt

Субтитри # 2-3: (Full, SDH)
мова: англійська
тип: програмні (м'які)
формат: *.srt


Info
Код:
General
Unique ID                                : 160979787657840069015632964086099831508 (0x791B9450398C78F97122C8BFD38B6AD4)
Complete name                            : 01. The Matrix (1999) UHD 1080p H.265 [UKR_ENG] [Hurtom].
Format                                   :
Format version                           : Version 4
File size                                : 11.2 GiB
Duration                                 : 2 h 16 min
Overall bit rate                         : 11.8 Mb/s
Movie name                               : Матриця / The Matrix (1999)
Encoded date                             : UTC 2019-12-22 15:49:30
Writing application                      : v20.0.0 ('I Am The Sun') 64-bit
Writing library                          : libebml v1.3.5 + v1.4.8
Cover                                    : Yes
Attachments                              : Cover.jpg

Video
ID                                       : 1
Format                                   : HEVC
Format/Info                              : High Efficiency Video Coding
Format profile                           : Main [email protected]@High
Codec ID                                 : V_MPEGH/ISO/HEVC
Duration                                 : 2 h 16 min
Bit rate                                 : 9 442 kb/s
Width                                    : 1 920 pixels
Height                                   : 800 pixels
Display aspect ratio                     : 2.40:1
Frame rate mode                          : Constant
Frame rate                               : 23.976 (24000/1001) FPS
Color space                              : YUV
Chroma subsampling                       : 4:2:0
Bit depth                                : 10 bits
Bits/(Pixel*Frame)                       : 0.256
Stream size                              : 8.99 GiB (80%)
Title                                    : Матриця / The Matrix (1999)
Writing library                          : x265 3.2+5-354901970679:[Windows][clang 8.0.1][64 bit] 10bit
Encoding settings                        : cpuid=1049583 / frame-threads=5 / numa-pools=4 / wpp / no-pmode / no-pme / no-psnr / no-ssim / log-level=3 / input-csp=1 / input-res=1920x800 / interlace=0 / total-frames=0 / level-idc=41 / high-tier=1 / uhd-bd=0 / ref=5 / allow-non-conformance / no-repeat-headers / annexb / no-aud / no-hrd / info / hash=0 / no-temporal-layers / open-gop / min-keyint=24 / keyint=240 / gop-lookahead=0 / bframes=16 / b-adapt=2 / b-pyramid / bframe-bias=0 / rc-lookahead=40 / lookahead-slices=5 / scenecut=40 / radl=0 / no-splice / no-intra-refresh / ctu=32 / min-cu-size=8 / no-rect / no-amp / max-tu-size=32 / tu-inter-depth=4 / tu-intra-depth=4 / limit-tu=1 / rdoq-level=1 / dynamic-rd=0.00 / no-ssim-rd / signhide / no-tskip / nr-intra=0 / nr-inter=0 / no-constrained-intra / no-strong-intra-smoothing / max-merge=5 / limit-refs=1 / no-limit-modes / me=3 / subme=7 / merange=57 / temporal-mvp / no-frame-dup / no-hme / weightp / no-weightb / no-analyze-src-pics / deblock=-3:-3 / no-sao / no-sao-non-deblock / rd=3 / selective-sao=0 / early-skip / no-rskip / no-fast-intra / no-tskip-fast / no-cu-lossless / b-intra / no-splitrd-skip / rdpenalty=0 / psy-rd=2.00 / psy-rdoq=1.00 / no-rd-refine / no-lossless / cbqpoffs=0 / crqpoffs=0 / rc=crf / crf=22.0 / qcomp=0.60 / qpstep=4 / stats-write=0 / stats-read=0 / vbv-maxrate=50000 / vbv-bufsize=50000 / vbv-init=0.9 / crf-max=0.0 / crf-min=0.0 / ipratio=1.40 / pbratio=1.30 / aq-mode=3 / aq-strength=1.00 / no-cutree / zone-count=0 / no-strict-cbr / qg-size=32 / no-rc-grain / qpmax=69 / qpmin=0 / no-const-vbv / sar=1 / overscan=0 / videoformat=5 / range=0 / colorprim=1 / transfer=1 / colormatrix=1 / chromaloc=0 / display-window=0 / cll=0,0 / min-luma=0 / max-luma=1023 / log2-max-poc-lsb=8 / vui-timing-info / vui-hrd-info / slices=1 / no-opt-qp-pps / no-opt-ref-list-length-pps / no-multi-pass-opt-rps / scenecut-bias=0.05 / no-opt-cu-delta-qp / no-aq-motion / no-hdr / no-hdr-opt / no-dhdr10-opt / no-idr-recovery-sei / analysis-reuse-level=5 / scale-factor=0 / refine-intra=0 / refine-inter=0 / refine-mv=1 / refine-ctu-distortion=0 / no-limit-sao / ctu-info=0 / no-lowpass-dct / refine-analysis-type=0 / copy-pic=1 / max-ausize-factor=1.0 / no-dynamic-refine / no-single-sei / no-hevc-aq / no-svt / no-field / qp-adaptation-range=1.00
Language                                 : English
Default                                  : Yes
Forced                                   : No
Color range                              : Limited
Color primaries                          : BT.709
Transfer characteristics                 : BT.709
Matrix coefficients                      : BT.709

Audio #1
ID                                       : 2
Format                                   : AC-3
Format/Info                              : Audio Coding 3
Commercial name                          : Dolby Digital
Codec ID                                 : A_AC3
Duration                                 : 2 h 16 min
Bit rate mode                            : Constant
Bit rate                                 : 448 kb/s
Channel(s)                               : 6 channels
Channel layout                           : L R C LFE Ls Rs
Sampling rate                            : 48.0 kHz
Frame rate                               : 31.250 FPS (1536 SPF)
Bit depth                                : 16 bits
Compression mode                         : Lossy
Stream size                              : 437 MiB (4%)
Title                                    : / 5.1 Ch / 448 kbps / БЗ / Novy Kanal, ICTV, 1+1
Language                                 : Ukrainian
Service kind                             : Complete Main
Default                                  : Yes
Forced                                   : Yes

Audio #2
ID                                       : 3
Format                                   :
Format/Info                              : Digital Theater Systems
Codec ID                                 : A_DTS
Duration                                 : 2 h 16 min
Bit rate mode                            : Constant
Bit rate                                 : 1 510 kb/s
Channel(s)                               : 6 channels
Channel layout                           : C L R Ls Rs LFE
Sampling rate                            : 48.0 kHz
Frame rate                               : 93.750 FPS (512 SPF)
Bit depth                                : 24 bits
Compression mode                         : Lossy
Delay relative to video                  : 22 ms
Stream size                              : 1.44 GiB (13%)
Title                                    : / 5.1 Ch / 1509 kbps / Original
Language                                 : English
Default                                  : No
Forced                                   : No

Audio #3
ID                                       : 4
Format                                   : AC-3
Format/Info                              : Audio Coding 3
Commercial name                          : Dolby Digital
Codec ID                                 : A_AC3
Duration                                 : 2 h 16 min
Bit rate mode                            : Constant
Bit rate                                 : 192 kb/s
Channel(s)                               : 2 channels
Channel layout                           : L R
Sampling rate                            : 48.0 kHz
Frame rate                               : 31.250 FPS (1536 SPF)
Bit depth                                : 16 bits
Compression mode                         : Lossy
Stream size                              : 187 MiB (2%)
Title                                    : / 2.0 Ch / 192 kbps / Original / Коментарі Корнела Веста і Кена Вілберга
Language                                 : English
Service kind                             : Complete Main
Default                                  : No
Forced                                   : No

Audio #4
ID                                       : 5
Format                                   : AC-3
Format/Info                              : Audio Coding 3
Commercial name                          : Dolby Digital
Codec ID                                 : A_AC3
Duration                                 : 2 h 16 min
Bit rate mode                            : Constant
Bit rate                                 : 192 kb/s
Channel(s)                               : 2 channels
Channel layout                           : L R
Sampling rate                            : 48.0 kHz
Frame rate                               : 31.250 FPS (1536 SPF)
Bit depth                                : 16 bits
Compression mode                         : Lossy
Stream size                              : 187 MiB (2%)
Title                                    : / 2.0 Ch / 192 kbps / Original / Коментарі критиків Тома МакКарті, Джона Паверса і Девіда Томсона
Language                                 : English
Service kind                             : Complete Main
Default                                  : No
Forced                                   : No

Text #1
ID                                       : 6
Format                                   : UTF-8
Codec ID                                 : S_TEXT/UTF8
Codec ID/Info                            : UTF-8 Plain Text
Duration                                 : 2 h 8 min
Bit rate                                 : 66 b/s
Count of elements                        : 1313
Stream size                              : 62.1 KiB (0%)
Title                                    : Full by w2958l
Language                                 : Ukrainian
Default                                  : Yes
Forced                                   : No

Text #2
ID                                       : 7
Format                                   : UTF-8
Codec ID                                 : S_TEXT/UTF8
Codec ID/Info                            : UTF-8 Plain Text
Duration                                 : 2 h 7 min
Bit rate                                 : 41 b/s
Count of elements                        : 1307
Stream size                              : 38.6 KiB (0%)
Title                                    : Full
Language                                 : English
Default                                  : No
Forced                                   : No

Text #3
ID                                       : 8
Format                                   : UTF-8
Codec ID                                 : S_TEXT/UTF8
Codec ID/Info                            : UTF-8 Plain Text
Duration                                 : 2 h 15 min
Bit rate                                 : 40 b/s
Count of elements                        : 1372
Stream size                              : 40.0 KiB (0%)
Title                                    : SDH
Language                                 : English
Default                                  : No
Forced                                   : No

Menu
00:00:00.000                             : en:Trinity in a Jam
00:03:25.788                             : en:Impossible Pursuit
00:06:35.645                             : en:Follow Instructions
00:09:42.665                             : en:The Question
00:11:58.300                             : en:"They're Coming for You"
00:16:47.423                             : en:Unable to Speak
00:21:33.542                             : en:Getting the Bug Out
00:25:08.590                             : en:Morpheus' Proposal
00:28:51.146                             : en:Down the Rabbit Hole
00:32:25.193                             : en:Slimy Rebirth
00:35:21.869                             : en:Nebuchadnezzar's Crew
00:38:40.901                             : en:The Real World
00:44:22.576                             : en:The Search Is Over
00:46:33.540                             : en:Training Begins
00:48:57.851                             : en:Morpheus/Neo Matchup
00:53:31.291                             : en:First Jump
00:56:32.138                             : en:The Gatekeepers
00:59:01.287                             : en:Running Silent and Deep
01:01:08.581                             : en:Dealing for Bliss
01:05:16.495                             : en:Off to See the Oracle
01:07:46.812                             : en:There Is No Spoon
01:12:33.432                             : en:Choices...and a Cookie
01:17:49.581                             : en:Glitch in the Matrix
01:21:03.108                             : en:One Left Behide
01:25:05.350                             : en:Heroes Unplugged
01:29:45.129                             : en:Cypher's Burnout
01:31:27.565                             : en:Matters of Belief
01:37:25.256                             : en:Virus to Be Cured
01:41:04.975                             : en:Lobby Shooting Spree
01:44:20.337                             : en:Dodge This
01:47:00.497                             : en:Gotcha
01:50:18.528                             : en:Rooftop Rescue
01:52:56.686                             : en:Subway Showdown
01:56:36.906                             : en:"My Name Is Neo"
01:58:49.372                             : en:Sentinels Attack
02:02:27.423                             : en:"He Is the One"
02:05:41.784                             : en:Final Connections
02:08:46.802                             : en:End Credits ("Wake Up Rock Is Dead")
Світлини



2. Матриця: Перезавантаження / The Matrix Reloaded (2003) UHD 2xUkr/Eng | Sub Ukr/Eng
Матриця: Перезавантаження / The Matrix Reloaded (2003) UHD 2xUkr/Eng | Sub Ukr/Eng

Матриця: Трилогія / The Matrix: Trilogy (1999-2003) 1080p H.265 2xUkr/Eng | Sub Ukr/Eng


Сюжет:
Нео (Рівз), Морфей (Фішберн) та Трініті (Мосс) намагаються захистити підземне місто Зіон - останню схованку людей, про існування якої нарешті дізнались безжалісні машини. Для цього героям потрібно проникнути у світ Матриці і перезавантажити її...
Перша "Матриця" зібрала у світовому прокаті понад 450 млн. доларів. Тому продовження фантастичного бойовика братів Вачовскі з самого початку вважались у Голлівуді "суперпроектами". Підготовка до зйомок тривала півроку. Актори чотири місяці вчилися володіти власним тілом та зброєю, потім три тижні тренувалися з 12 постановниками трюків.

Тривалість: 02:18:17
Якість: UHD

Відео:
кодек: H.265 (HEVC)
розмір кадру: 1920 x 800
бітрейт: 8 806 кб/с
бітова глибина: 10 біт

Увага! Перед завантаженням переконайтесь, що ваш пристрій відтворення (та/або ПЗ) підтримує H.265 (HEVC)

Аудіо # 1:
мова: українська
переклад: багатоголосий закадровий
кодек: AC-3 5.1
бітрейт: 448 кб/с

Аудіо # 2:
мова: українська
переклад: багатоголосий закадровий
кодек: AC-3 5.1
бітрейт: 448 кб/с

Аудіо # 3:
мова: англійська
переклад: оригінал
кодек: 5.1
бітрейт: 1511 кб/с

Аудіо # 4:
мова: англійська
переклад: оригінал | Коментарі Корнела Веста і Кена Вілберга
кодек: AC-3 2.0
бітрейт: 192 кб/с

Аудіо # 5:
мова: англійська
переклад: оригінал | Коментарі критиків Тома МакКарті, Джона Паверса і Девіда Томсона
кодек: AC-3 2.0
бітрейт: 192 кб/с

Субтитри # 1: (Full by w2958l)
мова: українська
тип: програмні (м'які)
формат: *.srt

Субтитри # 2-3: (Full, SDH)
мова: англійська
тип: програмні (м'які)
формат: *.srt


Info
Код:
General
Unique ID                                : 204674476605988639977069911877131452491 (0x99FADECE41B004178A972AB08404404B)
Complete name                            : 02. The Matrix Reloaded (2003) UHD 1080p H.265 [2xUKR_ENG] [Hurtom].
Format                                   :
Format version                           : Version 4
File size                                : 11.2 GiB
Duration                                 : 2 h 18 min
Overall bit rate                         : 11.6 Mb/s
Movie name                               : Матриця: Перезавантаження / The Matrix Reloaded (2003)
Encoded date                             : UTC 2019-12-22 16:00:04
Writing application                      : v20.0.0 ('I Am The Sun') 64-bit
Writing library                          : libebml v1.3.5 + v1.4.8
Cover                                    : Yes
Attachments                              : Cover.jpg

Video
ID                                       : 1
Format                                   : HEVC
Format/Info                              : High Efficiency Video Coding
Format profile                           : Main [email protected]@High
Codec ID                                 : V_MPEGH/ISO/HEVC
Duration                                 : 2 h 18 min
Bit rate                                 : 8 805 kb/s
Width                                    : 1 920 pixels
Height                                   : 800 pixels
Display aspect ratio                     : 2.40:1
Frame rate mode                          : Constant
Frame rate                               : 23.976 (24000/1001) FPS
Color space                              : YUV
Chroma subsampling                       : 4:2:0
Bit depth                                : 10 bits
Bits/(Pixel*Frame)                       : 0.239
Stream size                              : 8.51 GiB (76%)
Title                                    : Матриця: Перезавантаження / The Matrix Reloaded (2003)
Writing library                          : x265 3.2+5-354901970679:[Windows][clang 8.0.1][64 bit] 10bit
Encoding settings                        : cpuid=1049583 / frame-threads=5 / numa-pools=4 / wpp / no-pmode / no-pme / no-psnr / no-ssim / log-level=3 / input-csp=1 / input-res=1920x800 / interlace=0 / total-frames=0 / level-idc=41 / high-tier=1 / uhd-bd=0 / ref=5 / allow-non-conformance / no-repeat-headers / annexb / no-aud / no-hrd / info / hash=0 / no-temporal-layers / open-gop / min-keyint=24 / keyint=240 / gop-lookahead=0 / bframes=16 / b-adapt=2 / b-pyramid / bframe-bias=0 / rc-lookahead=40 / lookahead-slices=5 / scenecut=40 / radl=0 / no-splice / no-intra-refresh / ctu=32 / min-cu-size=8 / no-rect / no-amp / max-tu-size=32 / tu-inter-depth=4 / tu-intra-depth=4 / limit-tu=1 / rdoq-level=1 / dynamic-rd=0.00 / no-ssim-rd / signhide / no-tskip / nr-intra=0 / nr-inter=0 / no-constrained-intra / no-strong-intra-smoothing / max-merge=5 / limit-refs=1 / no-limit-modes / me=3 / subme=7 / merange=57 / temporal-mvp / no-frame-dup / no-hme / weightp / no-weightb / no-analyze-src-pics / deblock=-3:-3 / no-sao / no-sao-non-deblock / rd=3 / selective-sao=0 / early-skip / no-rskip / no-fast-intra / no-tskip-fast / no-cu-lossless / b-intra / no-splitrd-skip / rdpenalty=0 / psy-rd=2.00 / psy-rdoq=1.00 / no-rd-refine / no-lossless / cbqpoffs=0 / crqpoffs=0 / rc=crf / crf=22.0 / qcomp=0.60 / qpstep=4 / stats-write=0 / stats-read=0 / vbv-maxrate=50000 / vbv-bufsize=50000 / vbv-init=0.9 / crf-max=0.0 / crf-min=0.0 / ipratio=1.40 / pbratio=1.30 / aq-mode=3 / aq-strength=1.00 / no-cutree / zone-count=0 / no-strict-cbr / qg-size=32 / no-rc-grain / qpmax=69 / qpmin=0 / no-const-vbv / sar=1 / overscan=0 / videoformat=5 / range=0 / colorprim=1 / transfer=1 / colormatrix=1 / chromaloc=0 / display-window=0 / cll=0,0 / min-luma=0 / max-luma=1023 / log2-max-poc-lsb=8 / vui-timing-info / vui-hrd-info / slices=1 / no-opt-qp-pps / no-opt-ref-list-length-pps / no-multi-pass-opt-rps / scenecut-bias=0.05 / no-opt-cu-delta-qp / no-aq-motion / no-hdr / no-hdr-opt / no-dhdr10-opt / no-idr-recovery-sei / analysis-reuse-level=5 / scale-factor=0 / refine-intra=0 / refine-inter=0 / refine-mv=1 / refine-ctu-distortion=0 / no-limit-sao / ctu-info=0 / no-lowpass-dct / refine-analysis-type=0 / copy-pic=1 / max-ausize-factor=1.0 / no-dynamic-refine / no-single-sei / no-hevc-aq / no-svt / no-field / qp-adaptation-range=1.00
Language                                 : English
Default                                  : Yes
Forced                                   : No
Color range                              : Limited
Color primaries                          : BT.709
Transfer characteristics                 : BT.709
Matrix coefficients                      : BT.709

Audio #1
ID                                       : 2
Format                                   : AC-3
Format/Info                              : Audio Coding 3
Commercial name                          : Dolby Digital
Codec ID                                 : A_AC3
Duration                                 : 2 h 18 min
Bit rate mode                            : Constant
Bit rate                                 : 448 kb/s
Channel(s)                               : 6 channels
Channel layout                           : L R C LFE Ls Rs
Sampling rate                            : 48.0 kHz
Frame rate                               : 31.250 FPS (1536 SPF)
Bit depth                                : 16 bits
Compression mode                         : Lossy
Delay relative to video                  : 2 s 0 ms
Stream size                              : 443 MiB (4%)
Title                                    : / 5.1 Ch / 448 kbps / БЗ / ICTV
Language                                 : Ukrainian
Service kind                             : Complete Main
Default                                  : Yes
Forced                                   : Yes

Audio #2
ID                                       : 3
Format                                   : AC-3
Format/Info                              : Audio Coding 3
Commercial name                          : Dolby Digital
Codec ID                                 : A_AC3
Duration                                 : 2 h 18 min
Bit rate mode                            : Constant
Bit rate                                 : 448 kb/s
Channel(s)                               : 6 channels
Channel layout                           : L R C LFE Ls Rs
Sampling rate                            : 48.0 kHz
Frame rate                               : 31.250 FPS (1536 SPF)
Bit depth                                : 16 bits
Compression mode                         : Lossy
Delay relative to video                  : 2 s 0 ms
Stream size                              : 443 MiB (4%)
Title                                    : / 5.1 Ch / 448 kbps / БЗ / 1+1
Language                                 : Ukrainian
Service kind                             : Complete Main
Default                                  : No
Forced                                   : No

Audio #3
ID                                       : 4
Format                                   :
Format/Info                              : Digital Theater Systems
Codec ID                                 : A_DTS
Duration                                 : 2 h 18 min
Bit rate mode                            : Constant
Bit rate                                 : 1 510 kb/s
Channel(s)                               : 6 channels
Channel layout                           : C L R Ls Rs LFE
Sampling rate                            : 48.0 kHz
Frame rate                               : 93.750 FPS (512 SPF)
Bit depth                                : 24 bits
Compression mode                         : Lossy
Delay relative to video                  : 2 s 11 ms
Stream size                              : 1.46 GiB (13%)
Title                                    : / 5.1 Ch / 1509 kbps / Original
Language                                 : English
Default                                  : No
Forced                                   : No

Audio #4
ID                                       : 5
Format                                   : AC-3
Format/Info                              : Audio Coding 3
Commercial name                          : Dolby Digital
Codec ID                                 : A_AC3
Duration                                 : 2 h 18 min
Bit rate mode                            : Constant
Bit rate                                 : 192 kb/s
Channel(s)                               : 2 channels
Channel layout                           : L R
Sampling rate                            : 48.0 kHz
Frame rate                               : 31.250 FPS (1536 SPF)
Bit depth                                : 16 bits
Compression mode                         : Lossy
Delay relative to video                  : 2 s 0 ms
Stream size                              : 190 MiB (2%)
Title                                    : / 2.0 Ch / 192 kbps / Original / Коментарі Корнела Веста і Кена Вілберга
Language                                 : English
Service kind                             : Complete Main
Default                                  : No
Forced                                   : No

Audio #5
ID                                       : 6
Format                                   : AC-3
Format/Info                              : Audio Coding 3
Commercial name                          : Dolby Digital
Codec ID                                 : A_AC3
Duration                                 : 2 h 18 min
Bit rate mode                            : Constant
Bit rate                                 : 192 kb/s
Channel(s)                               : 2 channels
Channel layout                           : L R
Sampling rate                            : 48.0 kHz
Frame rate                               : 31.250 FPS (1536 SPF)
Bit depth                                : 16 bits
Compression mode                         : Lossy
Delay relative to video                  : 2 s 0 ms
Stream size                              : 190 MiB (2%)
Title                                    : / 2.0 Ch / 192 kbps / Original / Коментарі критиків Тома МакКарті, Джона Паверса і Девіда Томсона
Language                                 : English
Service kind                             : Complete Main
Default                                  : No
Forced                                   : No

Text #1
ID                                       : 7
Format                                   : UTF-8
Codec ID                                 : S_TEXT/UTF8
Codec ID/Info                            : UTF-8 Plain Text
Duration                                 : 2 h 17 min
Bit rate                                 : 66 b/s
Count of elements                        : 1187
Stream size                              : 66.8 KiB (0%)
Title                                    : Full by w2958l
Language                                 : Ukrainian
Default                                  : Yes
Forced                                   : No

Text #2
ID                                       : 8
Format                                   : UTF-8
Codec ID                                 : S_TEXT/UTF8
Codec ID/Info                            : UTF-8 Plain Text
Duration                                 : 2 h 15 min
Bit rate                                 : 45 b/s
Count of elements                        : 1213
Stream size                              : 45.3 KiB (0%)
Title                                    : Full
Language                                 : English
Default                                  : No
Forced                                   : No

Text #3
ID                                       : 9
Format                                   : UTF-8
Codec ID                                 : S_TEXT/UTF8
Codec ID/Info                            : UTF-8 Plain Text
Duration                                 : 2 h 15 min
Bit rate                                 : 44 b/s
Count of elements                        : 1178
Stream size                              : 44.3 KiB (0%)
Title                                    : SDH
Language                                 : English
Default                                  : No
Forced                                   : No

Menu
00:00:00.000                             : :Trinity's In
00:03:50.229                             : :Trust Me
00:08:55.368                             : :Upgrades
00:12:16.903                             : :Zion
00:16:24.317                             : :Matter of Time
00:19:43.182                             : :Homecomings
00:23:29.407                             : :We Are Still Here
00:27:26.811                             : :Celebrating Humanity
00:32:01.252                             : :Smith Will Suffice
00:33:43.188                             : :What Is Control?
00:37:57.442                             : :Summoned
00:40:55.619                             : :Seraph
00:43:44.956                             : :The Oracle
00:50:42.706                             : :Swarm of Smiths
00:55:08.472                             : :Sticking It to Them
01:00:03.099                             : :The Volunteer
01:02:49.766                             : :Taste of Merovingian
01:08:52.295                             : :Persephone's Kiss
01:13:06.881                             : :Unlocking the Keymaker
01:16:21.408                             : :Blade Leapers
01:20:31.827                             : :Twin Trouble
01:22:47.128                             : :Freeway Entrance
01:26:12.501                             : :Cross-Vehicular Traffic
01:29:52.886                             : :Biker Girl
01:32:50.899                             : :Trucks Amuck
01:37:10.823                             : :The Reason We're Here
01:40:51.378                             : :Sacrifice and Sabotage
01:44:57.791                             : :So Many of Me
01:48:12.152                             : :The Architect
01:52:25.572                             : :The One's Function
01:55:42.935                             : :Neo's Choice
01:57:37.550                             : :Not Letting Go
02:01:51.470                             : :Bomb's Target
02:04:18.451                             : :Feeling the Enemy
02:07:04.115                             : :End Credits
02:16:29.680                             : :The Matrix Revolutions Trailer
Світлини



3. Матриця: Революція / The Matrix Revolutions (2003) UHD 1080p H.265 2xUkr/Eng | Sub Ukr/Eng
Матриця: Революція / The Matrix Revolutions (2003) UHD 1080p H.265 2xUkr/Eng | Sub Ukr/Eng

Матриця: Трилогія / The Matrix: Trilogy (1999-2003) 1080p H.265 2xUkr/Eng | Sub Ukr/Eng


Сюжет:
Єдиній надії людства, обраному Нео, належить виконати свою місію. Відважного героя чекає подорож туди, куди не ступала нога людини - у самісіньке серце Міста Машин... В це самий час ці машини намагаються потрапити в самісіньке серце міста людей, які відчайдушно обороняються...

Тривалість: 02:09:15
Якість: UHD

Відео:
кодек: H.265 (HEVC)
розмір кадру: 1920 x 800
бітрейт: 10 039 кб/с
бітова глибина: 10 біт

Увага! Перед завантаженням переконайтесь, що ваш пристрій відтворення (та/або ПЗ) підтримує H.265 (HEVC)

Аудіо # 1:
мова: українська
переклад: багатоголосий закадровий
кодек: AC-3 5.1
бітрейт: 448 кб/с

Аудіо # 2:
мова: українська
переклад: багатоголосий закадровий
кодек: AC-3 5.1
бітрейт: 448 кб/с

Аудіо # 3:
мова: англійська
переклад: оригінал
кодек: 5.1
бітрейт: 1511 кб/с

Аудіо # 4:
мова: англійська
переклад: оригінал | Коментарі Корнела Веста і Кена Вілберга
кодек: AC-3 2.0
бітрейт: 192 кб/с

Аудіо # 5:
мова: англійська
переклад: оригінал | Коментарі критиків Тома МакКарті, Джона Паверса і Девіда Томсона
кодек: AC-3 2.0
бітрейт: 192 кб/с

Субтитри # 1: (Full by w2958l)
мова: українська
тип: програмні (м'які)
формат: *.srt

Субтитри # 2-3: (Full, SDH)
мова: англійська
тип: програмні (м'які)
формат: *.srt


Info
Код:
General
Unique ID                                : 331928076588962093198036357145800097510 (0xF9B705AF75B5F2F952FE8ACDE1EE3EE6)
Complete name                            : 03. The Matrix Revolutions (2003) UHD 1080p H.265 [2xUKR_ENG] [Hurtom].
Format                                   :
Format version                           : Version 4
File size                                : 11.6 GiB
Duration                                 : 2 h 9 min
Overall bit rate                         : 12.8 Mb/s
Movie name                               : Матриця: Революція / The Matrix Revolutions (2003)
Encoded date                             : UTC 2019-12-22 16:15:34
Writing application                      : v20.0.0 ('I Am The Sun') 64-bit
Writing library                          : libebml v1.3.5 + v1.4.8
Cover                                    : Yes
Attachments                              : Cover.jpg

Video
ID                                       : 1
Format                                   : HEVC
Format/Info                              : High Efficiency Video Coding
Format profile                           : Main [email protected]@High
Codec ID                                 : V_MPEGH/ISO/HEVC
Duration                                 : 2 h 9 min
Bit rate                                 : 10.0 Mb/s
Width                                    : 1 920 pixels
Height                                   : 800 pixels
Display aspect ratio                     : 2.40:1
Frame rate mode                          : Constant
Frame rate                               : 23.976 (24000/1001) FPS
Color space                              : YUV
Chroma subsampling                       : 4:2:0
Bit depth                                : 10 bits
Bits/(Pixel*Frame)                       : 0.273
Stream size                              : 9.06 GiB (78%)
Title                                    : Матриця: Революція / The Matrix Revolutions (2003)
Writing library                          : x265 3.2+5-354901970679:[Windows][clang 8.0.1][64 bit] 10bit
Encoding settings                        : cpuid=1049583 / frame-threads=5 / numa-pools=4 / wpp / no-pmode / no-pme / no-psnr / no-ssim / log-level=3 / input-csp=1 / input-res=1920x800 / interlace=0 / total-frames=0 / level-idc=41 / high-tier=1 / uhd-bd=0 / ref=5 / allow-non-conformance / no-repeat-headers / annexb / no-aud / no-hrd / info / hash=0 / no-temporal-layers / open-gop / min-keyint=24 / keyint=240 / gop-lookahead=0 / bframes=16 / b-adapt=2 / b-pyramid / bframe-bias=0 / rc-lookahead=40 / lookahead-slices=5 / scenecut=40 / radl=0 / no-splice / no-intra-refresh / ctu=32 / min-cu-size=8 / no-rect / no-amp / max-tu-size=32 / tu-inter-depth=4 / tu-intra-depth=4 / limit-tu=1 / rdoq-level=1 / dynamic-rd=0.00 / no-ssim-rd / signhide / no-tskip / nr-intra=0 / nr-inter=0 / no-constrained-intra / no-strong-intra-smoothing / max-merge=5 / limit-refs=1 / no-limit-modes / me=3 / subme=7 / merange=57 / temporal-mvp / no-frame-dup / no-hme / weightp / no-weightb / no-analyze-src-pics / deblock=-3:-3 / no-sao / no-sao-non-deblock / rd=3 / selective-sao=0 / early-skip / no-rskip / no-fast-intra / no-tskip-fast / no-cu-lossless / b-intra / no-splitrd-skip / rdpenalty=0 / psy-rd=2.00 / psy-rdoq=1.00 / no-rd-refine / no-lossless / cbqpoffs=0 / crqpoffs=0 / rc=crf / crf=22.0 / qcomp=0.60 / qpstep=4 / stats-write=0 / stats-read=0 / vbv-maxrate=50000 / vbv-bufsize=50000 / vbv-init=0.9 / crf-max=0.0 / crf-min=0.0 / ipratio=1.40 / pbratio=1.30 / aq-mode=3 / aq-strength=1.00 / no-cutree / zone-count=0 / no-strict-cbr / qg-size=32 / no-rc-grain / qpmax=69 / qpmin=0 / no-const-vbv / sar=1 / overscan=0 / videoformat=5 / range=0 / colorprim=1 / transfer=1 / colormatrix=1 / chromaloc=0 / display-window=0 / cll=0,0 / min-luma=0 / max-luma=1023 / log2-max-poc-lsb=8 / vui-timing-info / vui-hrd-info / slices=1 / no-opt-qp-pps / no-opt-ref-list-length-pps / no-multi-pass-opt-rps / scenecut-bias=0.05 / no-opt-cu-delta-qp / no-aq-motion / no-hdr / no-hdr-opt / no-dhdr10-opt / no-idr-recovery-sei / analysis-reuse-level=5 / scale-factor=0 / refine-intra=0 / refine-inter=0 / refine-mv=1 / refine-ctu-distortion=0 / no-limit-sao / ctu-info=0 / no-lowpass-dct / refine-analysis-type=0 / copy-pic=1 / max-ausize-factor=1.0 / no-dynamic-refine / no-single-sei / no-hevc-aq / no-svt / no-field / qp-adaptation-range=1.00
Language                                 : English
Default                                  : Yes
Forced                                   : No
Color range                              : Limited
Color primaries                          : BT.709
Transfer characteristics                 : BT.709
Matrix coefficients                      : BT.709

Audio #1
ID                                       : 2
Format                                   : AC-3
Format/Info                              : Audio Coding 3
Commercial name                          : Dolby Digital
Codec ID                                 : A_AC3
Duration                                 : 2 h 9 min
Bit rate mode                            : Constant
Bit rate                                 : 448 kb/s
Channel(s)                               : 6 channels
Channel layout                           : L R C LFE Ls Rs
Sampling rate                            : 48.0 kHz
Frame rate                               : 31.250 FPS (1536 SPF)
Bit depth                                : 16 bits
Compression mode                         : Lossy
Stream size                              : 414 MiB (3%)
Title                                    : / 5.1 Ch / 448 kbps / БЗ / ICTV
Language                                 : Ukrainian
Service kind                             : Complete Main
Default                                  : Yes
Forced                                   : Yes

Audio #2
ID                                       : 3
Format                                   : AC-3
Format/Info                              : Audio Coding 3
Commercial name                          : Dolby Digital
Codec ID                                 : A_AC3
Duration                                 : 2 h 9 min
Bit rate mode                            : Constant
Bit rate                                 : 448 kb/s
Channel(s)                               : 6 channels
Channel layout                           : L R C LFE Ls Rs
Sampling rate                            : 48.0 kHz
Frame rate                               : 31.250 FPS (1536 SPF)
Bit depth                                : 16 bits
Compression mode                         : Lossy
Stream size                              : 414 MiB (3%)
Title                                    : / 5.1 Ch / 448 kbps / БЗ / 1+1
Language                                 : Ukrainian
Service kind                             : Complete Main
Default                                  : No
Forced                                   : No

Audio #3
ID                                       : 4
Format                                   :
Format/Info                              : Digital Theater Systems
Codec ID                                 : A_DTS
Duration                                 : 2 h 9 min
Bit rate mode                            : Constant
Bit rate                                 : 1 510 kb/s
Channel(s)                               : 6 channels
Channel layout                           : C L R Ls Rs LFE
Sampling rate                            : 48.0 kHz
Frame rate                               : 93.750 FPS (512 SPF)
Bit depth                                : 24 bits
Compression mode                         : Lossy
Delay relative to video                  : 22 ms
Stream size                              : 1.36 GiB (12%)
Title                                    : / 5.1 Ch / 1509 kbps / Original
Language                                 : English
Default                                  : No
Forced                                   : No

Audio #4
ID                                       : 5
Format                                   : AC-3
Format/Info                              : Audio Coding 3
Commercial name                          : Dolby Digital
Codec ID                                 : A_AC3
Duration                                 : 2 h 9 min
Bit rate mode                            : Constant
Bit rate                                 : 192 kb/s
Channel(s)                               : 2 channels
Channel layout                           : L R
Sampling rate                            : 48.0 kHz
Frame rate                               : 31.250 FPS (1536 SPF)
Bit depth                                : 16 bits
Compression mode                         : Lossy
Stream size                              : 178 MiB (1%)
Title                                    : / 2.0 Ch / 192 kbps / Original / Коментарі Корнела Веста і Кена Вілберга
Language                                 : English
Service kind                             : Complete Main
Default                                  : No
Forced                                   : No

Audio #5
ID                                       : 6
Format                                   : AC-3
Format/Info                              : Audio Coding 3
Commercial name                          : Dolby Digital
Codec ID                                 : A_AC3
Duration                                 : 2 h 9 min
Bit rate mode                            : Constant
Bit rate                                 : 192 kb/s
Channel(s)                               : 2 channels
Channel layout                           : L R
Sampling rate                            : 48.0 kHz
Frame rate                               : 31.250 FPS (1536 SPF)
Bit depth                                : 16 bits
Compression mode                         : Lossy
Stream size                              : 178 MiB (1%)
Title                                    : / 2.0 Ch / 192 kbps / Original / Коментарі критиків Тома МакКарті, Джона Паверса і Девіда Томсона
Language                                 : English
Service kind                             : Complete Main
Default                                  : No
Forced                                   : No

Text #1
ID                                       : 7
Format                                   : UTF-8
Codec ID                                 : S_TEXT/UTF8
Codec ID/Info                            : UTF-8 Plain Text
Duration                                 : 2 h 8 min
Bit rate                                 : 60 b/s
Count of elements                        : 1083
Stream size                              : 56.7 KiB (0%)
Title                                    : Full by w2958l
Language                                 : Ukrainian
Default                                  : Yes
Forced                                   : No

Text #2
ID                                       : 8
Format                                   : UTF-8
Codec ID                                 : S_TEXT/UTF8
Codec ID/Info                            : UTF-8 Plain Text
Duration                                 : 1 h 58 min
Bit rate                                 : 41 b/s
Count of elements                        : 1055
Stream size                              : 36.4 KiB (0%)
Title                                    : Full
Language                                 : English
Default                                  : No
Forced                                   : No

Text #3
ID                                       : 9
Format                                   : UTF-8
Codec ID                                 : S_TEXT/UTF8
Codec ID/Info                            : UTF-8 Plain Text
Duration                                 : 1 h 58 min
Bit rate                                 : 43 b/s
Count of elements                        : 1103
Stream size                              : 37.4 KiB (0%)
Title                                    : SDH
Language                                 : English
Default                                  : No
Forced                                   : No

Menu
00:00:00.000                             : :20 Hours to Go
00:03:55.401                             : :Trapped
00:07:33.119                             : :The Connection Matters
00:10:19.952                             : :Down Here I'm God
00:14:44.383                             : :Coat-Check Chaos
00:17:58.744                             : :Interesting Deal
00:23:33.245                             : :The End Is Coming
00:30:06.304                             : :We Meet at Last
00:35:35.633                             : :The Logos Found
00:39:34.205                             : :Volunteers
00:42:58.909                             : :I Believe in Him
00:46:43.300                             : :Nothing's Changed
00:49:02.606                             : :Stowaway
00:51:53.610                             : :See Your Enemy
00:58:00.643                             : :Give 'em Hell
01:00:19.115                             : :Detected
01:02:29.746                             : :Breaching the Dome
01:08:00.910                             : :Storming Sentinels
01:10:29.225                             : :Trying to Keep Up
01:14:33.802                             : :Unfinished Business
01:18:23.365                             : :Hell of a Pilot
01:23:08.984                             : :Report to the Council
01:25:55.817                             : :Believers
01:29:13.348                             : :Glimpse of the Sky
01:31:51.672                             : :Saying What Matters
01:36:51.472                             : :A Truce
01:41:55.275                             : :It Ends Tonight
01:44:53.120                             : :Urban Splash
01:48:06.646                             : :Neo's Choice
01:51:30.850                             : :Inevitable and Over
01:55:05.899                             : :Real Peace
01:57:31.210                             : :Freedom and Sunlight
02:00:12.371                             : :End Credits
Світлини




Джерело:
Особиста оцінка: 10 - без зайвих вагань рекомендую всім!
ЗАЛИШАЙТЕСЬ ЯКОМОГА ДОВШЕ НА РОЗДАЧІ!
ЗАВАНТАЖИВ САМ - ДАЙ ЗАВАНТАЖИТИ ІНШИМ


Срібний реліз (на рейтинг впливає 50% завантаженого)
 Трекер:    Зареєстрований   

Завантажити / скачати фільм українською



відео для новачків



 Зареєстрований:   2019-12-23 11:52
 Розмір:   34.01 GB 
 Оцінка фільму:   9.9/10 (Голосів: 72)
   
StepKryha 
Поважний учасник


З нами з: 21.06.17
Востаннє: 22.09.20
Повідомлень: 205

2018-10-24 11:38  
Прекрасні фільми, в яких з кожним разом помічаєш все більше і більше деталей, які впливають на історію та мають свою неповторну цінність. Звичайно наступні, після 1, частини - поставили іншу інтонацію в сюжеті, але якщо дивитись на них, як на одну суцільну та безперервну історію - все виглядає надзвичайно логічно та захоплююче.
9/10. Обов'язково рекомендую для ознайомлення!

Magda-Lena 
Свій


З нами з: 19.01.11
Востаннє: 20.09.20
Повідомлень: 54

2019-06-09 16:45  
Улюблений фільм, можливо, когось зацікавлять такі варіанти-ріпи:
МАТРИЦЯ (1999).Open Matte..1080p.(1+1).[5GB]
МАТРИЦЯ (1999).Open Matte.HDTV.1080p.HEVC.x265.(1+1).Theatrical Colors.[2GB]

novikov_e 
Частий відвідувач


З нами з: 05.10.09
Востаннє: 05.07.20
Повідомлень: 34

2019-09-01 18:21  
Magda-Lena написано:
МАТРИЦЯ (1999).Open Matte..1080p.(1+1).[5GB]

Це не . а звичайний HDTV.

Ruslan Kozak 
Частий відвідувач


З нами з: 17.06.16
Востаннє: 22.09.20
Повідомлень: 33

2019-09-06 12:51  
Як на мене, із таким релізом не варто економити на якості. Релизер останнім часом переробляє багато фільмів, які викладав раніше. Сподіваюся, що колись і до цього шедевра руки дойдуть...
Reborn3854 
Свій


З нами з: 03.10.10
Востаннє: 21.09.20
Повідомлень: 121

2019-10-02 22:26  
В першій частині хтось наполегливо працював мишкою під час запису звукової доріжки і забув вимкнути запис звуків Windows Wide grin
Anonymous 







2019-12-23 11:53  
Замінено відеоряди на якісніші, англійські доріжки -> 5.1 , додано саби по-максимуму.
MakRA 
VIP


З нами з: 11.11.18
Востаннє: 22.09.20
Повідомлень: 1119

2019-12-23 12:02  
Anonymous
Супер! Дякую, треба передивитися, давненько вже бачив

Anonymous 







2019-12-23 12:48  
MakRA
Будь ласка Happy

olimpian1 
VIP


З нами з: 19.10.13
Востаннє: 21.09.20
Повідомлень: 290

2020-02-20 22:21  
А чому срібна роздача, а не золота?
don pedro 
Попереджень: 1
Попереджень: 1 


З нами з: 29.06.11
Востаннє: 22.09.20
Повідомлень: 17734

2020-02-20 22:26  
Знімають четверту частину з тими самими виконавцями головних ролей.
antik_2008 
Релізер і модератор відео


З нами з: 20.10.08
Востаннє: 21.09.20
Повідомлень: 4142

2020-02-20 22:31  
olimpian1 написано:
А чому срібна роздача, а не золота?

Срібло - все до 2005

Gingеrbread 
Забанено
Забанено


З нами з: 01.07.19
Востаннє: 02.03.20
Повідомлень: 358

2020-02-20 22:35  
Anonymous написано:
UHD

Не додавайте це в назву теми, це уводить в оману при пошуку 4k фільмів.

Ruslan Kozak 
Частий відвідувач


З нами з: 17.06.16
Востаннє: 22.09.20
Повідомлень: 33

2020-02-21 19:25  
Порівняв перший варіант із цим й вирішив залишити собі ремукси. На жаль ці ріпи надто "перепалені", контраст зашкалює. Довго порівнював. Шкода, що не вдасться зекономити місце...
bodiibusjku112 
Новенький


З нами з: 29.12.19
Востаннє: 17.09.20
Повідомлень: 2

2020-06-05 23:40  
Українські субтитри жахливі, явно перекладені з російської не власноруч (о нет! = про немає!)
І запізнюються приблизно на півсекунди в першій частині, в другій навпаки

Ваш часовий пояс: GMT + 2 Години

Нова тема   Відповісти