1492: Завоювання раю / 1492: Conquest of Paradise (1992) Remux 1080i Ukr/Eng | Sub Eng/Fre

Нові коментарі

Нова тема   Відповісти
Автор Повідомлення
kryk-v.ya. 
VIP


З нами з: 14.02.14
Востаннє: 15.12.18
Повідомлень: 736

2018-09-01 14:13  
1492: Завоювання раю / 1492: Conquest of Paradise (1992) Remux 1080i Ukr/Fre | Sub Fre

1492: Завоювання раю / 1492: Conquest of Paradise (1992) Remux 1080i Ukr/Eng | Sub Eng/Fre


Жанр: пригодницький, біографічний, драма, історичний
Країна: Франція, Іспанія, США



Кінокомпанія: Gaumont, Legende Entreprises, France 3 Cinema, Due West, Cyrkfilms, Ministere de la Culture, Spanish Ministry of Culture
Режисер: Рідлі Скотт / Ridley Scott
Актори: Жерар Депардьє / Gerard Depardieu, Арманд Ассанте / Armand Assante, Сіґурні Вівер / Sigourney Weaver, Лорен Дін / Loren Dean, Анджела Моліна / Angela Molina, Фернандо Рей / Fernando Rey, Майкл Вінкот / Michael Wincott, Чекі Каріо / Tcheky Karyo, Кевін Данн / Kevin Dunn, Френк Ланджелла / Frank Langella, Марк Марголіс / Mark Margolis, Каріо Салем / Kario Salem, Біллі Л. Сулліван / Billy L. Sullivan, Джон Хеффернан / John Heffernan, Арнольд Вослоу / Arnold Vosloo

Сюжет:
Велика мрія, що стала реальністю всесвітньої історії. Генуезький мореплавець Христофор Колумб усе життя мріяв відкрити нові шляхи до Індії. Багато років усі тільки сміялися над його "божевільними" проектами прокласти морський маршрут на Схід через Захід. І все ж Колумб зміг переконати іспанську королеву Ізабеллу профінансувати його експедицію до далеких країн, багатих на золото і прянощі. Спорядивши три невеликі каравели, Колумб вирушив назустріч незвіданому...


Тривалість: 02:29:25
Якість: Remux 1080i
Відео:
кодек:
розмір кадру: 1920 х 1080
бітрейт: 24445 кб/с

Аудіо # 1:
мова: українська
переклад: двоголосий закадровий
кодек: 2.0
бітрейт: 192 кб/с

Аудіо # 2:
мова: англійська
переклад: оригінал
кодек: -HD MA 2.0
бітрейт: 2140 кб/с

Джерело озвучення:


Субтитри# 1:
мова: англійська
тип: пререндерні
формат: *.pgs

Субтитри # 2:
мова: французька
тип: пререндерні
формат: *.pgs
BDInfo

Код:


DISC INFO:

Disc Title:     1492_CONQUEST_OF_PARADISE_1992_BD-RMX
Disc Size:      31 751 742 947 bytes
Protection:     AACS
BD-Java:        No
Extras:         50Hz Content
BDInfo:         0.7.3.3

PLAYLIST REPORT:

Name:                   00000.MPLS
Length:                 2:29:25.280 (h:m:s.ms)
Size:                   31 751 565 312 bytes
Total Bitrate:          28,33 Mbps

VIDEO:

Codec                   Bitrate             Description
-----                   -------             -----------
MPEG-4 AVC Video        24445 kbps          1080i / 25 fps / 16:9 / High Profile 4.1

AUDIO:

Codec                           Language        Bitrate         Description
-----                           --------        -------         -----------
Dolby Digital Audio             Ukrainian       192 kbps        2.0 / 48 kHz / 192 kbps / DN -4dB
-HD Master Audio             English         2142 kbps       2.0 / 48 kHz / 2142 kbps / 24-bit ( Core: 2.0 / 48 kHz / 1509 kbps / 24-bit)

SUBTITLES:

Codec                           Language        Bitrate         Description
-----                           --------        -------         -----------
Presentation Graphics           English         12,608 kbps
Presentation Graphics           French          13,047 kbps

FILES:

Name            Time In         Length          Size            Total Bitrate
----            -------         ------          ----            -------------
00000.M2TS      0:00:00.000     2:29:25.280     31 751 565 312  28 333

CHAPTERS:

Number          Time In         Length          Avg Video Rate  Max 1-Sec Rate  Max 1-Sec Time  Max 5-Sec Rate  Max 5-Sec Time  Max 10Sec Rate  Max 10Sec Time  Avg Frame Size  Max Frame Size  Max Frame Time
------          -------         ------          --------------  --------------  --------------  --------------  --------------  --------------  --------------  --------------  --------------  --------------
1               0:00:00.000     0:05:00.000     24 970 kbps     39 867 kbps     00:02:55.880    33 927 kbps     00:02:55.560    32 243 kbps     00:02:55.319    124 836 bytes   523 180 bytes   00:02:11.560
2               0:05:00.000     0:05:00.000     24 997 kbps     34 953 kbps     00:05:44.840    28 691 kbps     00:05:29.159    27 099 kbps     00:05:24.199    124 984 bytes   565 216 bytes   00:05:20.560
3               0:10:00.000     0:05:00.000     24 999 kbps     35 265 kbps     00:10:32.199    28 127 kbps     00:11:28.279    26 864 kbps     00:11:26.600    124 996 bytes   465 110 bytes   00:13:43.880
4               0:15:00.000     0:05:00.000     25 025 kbps     35 725 kbps     00:18:01.080    28 093 kbps     00:15:25.520    26 460 kbps     00:15:23.680    125 126 bytes   473 072 bytes   00:18:34.279
5               0:20:00.000     0:05:00.000     24 997 kbps     36 005 kbps     00:23:13.920    29 423 kbps     00:22:19.640    27 232 kbps     00:22:46.520    124 983 bytes   487 923 bytes   00:21:54.560
6               0:25:00.000     0:05:00.000     24 997 kbps     39 175 kbps     00:28:14.080    28 998 kbps     00:27:49.479    27 442 kbps     00:28:31.600    124 983 bytes   609 061 bytes   00:28:20.840
7               0:30:00.000     0:05:00.000     24 987 kbps     39 104 kbps     00:33:21.600    31 801 kbps     00:34:46.000    30 079 kbps     00:34:45.080    124 934 bytes   447 805 bytes   00:30:33.160
8               0:35:00.000     0:05:00.000     24 986 kbps     35 942 kbps     00:35:33.600    27 407 kbps     00:35:01.239    26 118 kbps     00:35:47.520    124 928 bytes   452 361 bytes   00:39:59.160
9               0:40:00.000     0:05:00.000     25 035 kbps     41 199 kbps     00:42:17.000    33 736 kbps     00:40:47.640    29 775 kbps     00:40:47.560    125 174 bytes   468 398 bytes   00:40:44.040
10              0:45:00.000     0:05:00.000     24 936 kbps     40 282 kbps     00:48:03.640    34 376 kbps     00:46:35.279    32 403 kbps     00:46:35.279    124 680 bytes   453 307 bytes   00:45:09.319
11              0:50:00.000     0:05:00.000     25 054 kbps     36 607 kbps     00:50:58.680    29 810 kbps     00:50:07.920    27 577 kbps     00:52:11.359    125 268 bytes   455 874 bytes   00:51:43.439
12              0:55:00.000     0:05:00.000     25 006 kbps     39 659 kbps     00:57:54.360    31 474 kbps     00:56:39.080    29 133 kbps     00:56:50.880    125 030 bytes   629 046 bytes   00:56:41.080
13              1:00:00.000     0:05:00.000     24 983 kbps     44 209 kbps     01:04:12.200    32 792 kbps     01:04:12.200    30 051 kbps     01:04:12.200    124 916 bytes   487 615 bytes   01:02:37.080
14              1:05:00.000     0:05:00.000     25 018 kbps     36 254 kbps     01:07:18.840    32 402 kbps     01:08:17.440    31 763 kbps     01:08:14.240    125 091 bytes   459 668 bytes   01:06:55.840
15              1:10:00.000     0:05:00.000     24 963 kbps     39 624 kbps     01:14:11.320    29 203 kbps     01:13:44.320    26 891 kbps     01:14:11.200    124 816 bytes   472 444 bytes   01:12:45.760
16              1:15:00.000     0:05:00.000     25 016 kbps     37 400 kbps     01:19:44.920    28 289 kbps     01:17:47.559    26 817 kbps     01:17:49.560    125 078 bytes   506 245 bytes   01:19:18.840
17              1:20:00.000     0:05:00.000     24 994 kbps     36 697 kbps     01:20:17.520    29 342 kbps     01:23:48.479    27 106 kbps     01:23:48.439    124 970 bytes   432 310 bytes   01:24:02.840
18              1:25:00.000     0:05:00.000     25 009 kbps     47 132 kbps     01:26:00.920    33 928 kbps     01:26:00.879    29 820 kbps     01:25:29.679    125 046 bytes   525 029 bytes   01:29:06.280
19              1:30:00.000     0:05:00.000     25 035 kbps     39 598 kbps     01:31:58.680    33 371 kbps     01:31:48.799    29 890 kbps     01:31:44.120    125 173 bytes   595 397 bytes   01:30:11.520
20              1:35:00.000     0:05:00.000     24 489 kbps     39 911 kbps     01:39:41.559    33 186 kbps     01:39:41.479    29 745 kbps     01:39:41.519    122 443 bytes   528 657 bytes   01:38:03.479
21              1:40:00.000     0:05:00.000     25 465 kbps     42 135 kbps     01:41:59.000    34 503 kbps     01:40:04.440    32 057 kbps     01:40:02.439    127 325 bytes   479 230 bytes   01:41:56.799
22              1:45:00.000     0:05:00.000     25 004 kbps     43 008 kbps     01:47:35.320    34 276 kbps     01:47:24.000    31 802 kbps     01:47:22.000    125 018 bytes   556 242 bytes   01:46:08.320
23              1:50:00.000     0:05:00.000     24 993 kbps     41 577 kbps     01:54:41.920    34 019 kbps     01:51:52.559    31 955 kbps     01:53:51.480    124 965 bytes   536 438 bytes   01:53:49.600
24              1:55:00.000     0:05:00.000     25 019 kbps     38 267 kbps     01:56:39.959    30 143 kbps     01:56:16.680    27 661 kbps     01:59:40.560    125 094 bytes   568 569 bytes   01:58:41.200
25              2:00:00.000     0:05:00.000     24 987 kbps     42 692 kbps     02:01:48.640    34 288 kbps     02:01:45.800    31 198 kbps     02:01:44.600    124 937 bytes   493 317 bytes   02:02:15.000
26              2:05:00.000     0:05:00.000     25 012 kbps     44 223 kbps     02:06:50.400    34 789 kbps     02:06:49.000    31 388 kbps     02:07:44.480    125 059 bytes   495 685 bytes   02:07:01.080
27              2:10:00.000     0:05:00.000     25 012 kbps     33 959 kbps     02:10:03.000    29 903 kbps     02:11:29.520    27 386 kbps     02:11:28.200    125 062 bytes   445 844 bytes   02:13:25.000
28              2:15:00.000     0:05:00.000     24 997 kbps     36 969 kbps     02:17:30.480    30 498 kbps     02:19:04.520    28 968 kbps     02:19:00.440    124 985 bytes   430 336 bytes   02:17:30.240
29              2:20:00.000     0:05:00.000     23 331 kbps     37 227 kbps     02:24:24.800    34 046 kbps     02:24:22.160    32 124 kbps     02:24:18.080    116 655 bytes   405 972 bytes   02:21:04.879
30              2:25:00.000     0:04:25.280     8 156 kbps      13 299 kbps     02:26:46.440    12 129 kbps     02:26:44.480    11 661 kbps     02:26:44.160    40 788 bytes    187 533 bytes   02:26:47.440

STREAM DIAGNOSTICS:

File            PID             Type            Codec           Language                Seconds                 Bitrate                 Bytes           Packets
----            ---             ----            -----           --------                --------------          --------------          -------------   -----
00000.M2TS      4113 (0x1011)   0x1B            AVC                                     8965,200                24 445                  27 394 757 979  149 016 188
00000.M2TS      4352 (0x1100)   0x81                         ukr (Ukrainian)         8965,200                192                     215 159 040     1 400 775
00000.M2TS      4353 (0x1101)   0x86            -HD MA       eng (English)           8965,200                2 142                   2 400 647 352   14 439 596
00000.M2TS      4608 (0x1200)   0x90            PGS             eng (English)           8965,200                13                      14 129 735      83 415
00000.M2TS      4609 (0x1201)   0x90            PGS             fre (French)            8965,200                13                      14 620 692      86 355

Скріншоти











Джерело: &
Особиста оцінка: 10 - без зайвих вагань рекомендую всім!

Висловлюю подяку п. OlegCena за наданий сирий звук.
та пану karvai0 за зведення.


Золотий реліз (завантажене не впливає на рейтинг)
 Трекер:    Зареєстрований   

Завантажити / скачати фільм українською



відео для новачків



 Зареєстрований:   2018-10-23 11:12
 Розмір:   29.57 GB 
 Оцінка фільму:   10/10 (Голосів: 7)
   
Інші релізи
+380954897458 
Свій


З нами з: 02.06.17
Востаннє: 15.12.18
Повідомлень: 103

2018-09-01 20:54  
А чому французька мова, адже кіно англомовне?
kryk-v.ya. 
VIP


З нами з: 14.02.14
Востаннє: 15.12.18
Повідомлень: 736

2018-09-01 21:08  
+380954897458
виробник і замовник французи...і титри йдуть на французській.
мене це питання теж хвилює,адже на диску була і англійська,та правилами чомусь заборонено додавати більш чим одну оригінальну доріжку,от і думай,яка в цьому світовому блокбастері-головніша.

igor911 
Відео Гуртом
Відео Гуртом


З нами з: 18.01.08
Востаннє: 15.12.18
Повідомлень: 11618

2018-09-01 21:30  
kryk-v.ya. написано:
от і думай,яка в цьому світовому блокбастері-головніша.

в такому разі треба дивитись на імдб:
imdb написано:
Details
Country: France | Spain | USA
Language: English


Додано через 54 секунди:

kryk-v.ya. написано:
титри йдуть на французській

мабуть з фр.блурея

Додано через 5 хвилин 4 секунди:

на американському блуреі - лише англ., на німецькому - англ.+німецька, на іспанському - іспанська, англ, франц. Та й на фр.блуреї, звідки цей ремукс - англійська йде першою.

Тому треба таки замінити французьку доріжку на англійську.

Додано через 1 хвилину 59 секунд:

п.с. на субтитри обмеження не розповсюджуються, тому можна і англ і франц.

Додано через 5 хвилин 21 секунду:

п.п.с. на вікіпедії та themoviedb.org оригіналом теж вказано англійську.

Додано через 5 хвилин 48 секунд:

п.п.п.с. на німецькому та американському дисках відео не інтерлейсне, а прогресивне.
QUICK SUMMARY:

Disc Title: 1492
Disc Size: 34,784,778,802 bytes
Protection: AACS
BD-Java: No
Playlist: 00004.MPLS
Size: 31,487,440,896 bytes
Length: 2:30:23.472
Total Bitrate: 27.92 Mbps
Video: MPEG-4 AVC Video / 24598 kbps / 1080p / 23.976 fps / 16:9 / High Profile 4.1
Audio: English / -HD Master Audio / 2.0 / 48 kHz / 1559 kbps / 16-bit ( Core: 2.0 / 48 kHz / 1509 kbps / 16-bit)
Audio: English / Dolby Digital Audio / 2.0 / 48 kHz / 256 kbps
Subtitle: English / 13.876 kbps
DISC INFO:

Disc Title: 1492 Conquest of Paradise 1992 1080p Blu-ray AVC -HD MA 5 1
Disc Size: 41,262,876,738 bytes
Protection: AACS
BD-Java: No
Extras: 50Hz Content
BDInfo: 0.5.8

PLAYLIST REPORT:

Name: 00000.MPLS
Length: 2:35:51.342 (h:m:s.ms)
Size: 39,948,582,912 bytes
Total Bitrate: 34.18 Mbps

VIDEO:

Codec Bitrate Description
----- ------- -----------
MPEG-4 AVC Video 28000 kbps 1080p / 23.976 fps / 16:9 / High Profile 4.1

AUDIO:

Codec Language Bitrate Description
----- -------- ------- -----------
-HD Master Audio German 2045 kbps 5.1 / 48 kHz / 2045 kbps / 16-bit ( Core: 5.1 / 48 kHz / 1509 kbps / 16-bit)
-HD Master Audio English 2036 kbps 5.1 / 48 kHz / 2036 kbps / 16-bit ( Core: 5.1 / 48 kHz / 1509 kbps / 16-bit)

SUBTITLES:

Codec Language Bitrate Description
----- -------- ------- -----------
Presentation Graphics German 139.395 kbps
Presentation Graphics German 1.067 kbps

FILES:

Name Time In Length Size Total Bitrate
---- ------- ------ ---- -------------
00000.M2TS 0:00:00.000 1:26:10.165 22,994,620,416 35,580
00001.M2TS 1:26:10.165 1:09:41.177 16,953,962,496
32,439

kryk-v.ya. 
VIP


З нами з: 14.02.14
Востаннє: 15.12.18
Повідомлень: 736

2018-10-23 11:16  
Реліз оновлено(23.10.2018-12.15)...виправлено помилки...заміна на оригінальну доріжку і додано англійські субтитри.
igor911 
Відео Гуртом
Відео Гуртом


З нами з: 18.01.08
Востаннє: 15.12.18
Повідомлень: 11618

2018-10-23 11:20  
kryk-v.ya. написано:
виправлено помилки

які?

kryk-v.ya. 
VIP


З нами з: 14.02.14
Востаннє: 15.12.18
Повідомлень: 736

2018-10-23 12:13  
igor911
Мав на увазі оригінальну доріжку з французької на англійську...(помилився у виборі оригіналу).

п.с. прогресивне відео ніде де мені відомо не знайшов...знайду заміню...можливо Ви підкажете?

lightinsight 
Свій


З нами з: 07.04.14
Востаннє: 15.12.18
Повідомлень: 100

2018-10-23 16:51  
Дякую!
+380954897458 
Свій


З нами з: 02.06.17
Востаннє: 15.12.18
Повідомлень: 103

2018-10-23 20:01  
Англійська з'явилася. То добре! Та хай йому грець, ніколи не погоджуся з вашими системами рейтингів. Фільми з такими великими об'ємами мають додавати рейтинг.
kryk-v.ya. 
VIP


З нами з: 14.02.14
Востаннє: 15.12.18
Повідомлень: 736

2018-10-23 20:09  
+380954897458 написано:
Англійська з'явилася. То добре! Та хай йому грець, ніколи не погоджуся з вашими системами рейтингів. Фільми з такими великими об'ємами мають додавати рейтинг.

я вже хотів вам дзвонити...
англійська-є,то прошу завантажити і сидіти на роздачі з пару років...

igor911 
Відео Гуртом
Відео Гуртом


З нами з: 18.01.08
Востаннє: 15.12.18
Повідомлень: 11618

2018-10-23 20:13  
+380954897458 написано:
Фільми з такими великими об'ємами мають додавати рейтинг

а у вас він що, віднімається?

sandman 
Поважний учасник


З нами з: 12.08.12
Востаннє: 15.12.18
Повідомлень: 211

2018-10-24 08:39  
+380954897458 написано:
Фільми з такими великими об'ємами мають додавати рейтинг

а він і додається: скачали - нічого не віднялось (золото), постояли подовше на роздачі - додалось

kryk-v.ya. 
VIP


З нами з: 14.02.14
Востаннє: 15.12.18
Повідомлень: 736

2018-10-24 09:45  
панове Гуртомівці!!!УВАГА,УВАГА,АХТУНГ,АХТУНГ...

приємно читати ВАШІ думки (добре що вони є),
але...діло в тім...
попри все що Ви думаєте непогано б було, як би прозвучало крім всього іншого, і декілька слів про ФІЛЬМ, та про реліз...
тобто ваші ВРАЖЕННЯ від переглянутого...окей?

п.с...надеяких трекерах є правило,якщо користувач не скачав данний фільм, то він не має права писати в коментарях...(суто про фільм і реліз)
особисто мені таке правило до вподоби...
бо інколи опишуть все на світі, а про реліз ні слова...
все ж таки інколи, дехто і старається.

igor911 
Відео Гуртом
Відео Гуртом


З нами з: 18.01.08
Востаннє: 15.12.18
Повідомлень: 11618

2018-10-24 10:36  
kryk-v.ya. написано:
на деяких трекерах є правило, якщо користувач не скачав даний фільм, то він не має права писати в коментарях

на яких?

kryk-v.ya. 
VIP


З нами з: 14.02.14
Востаннє: 15.12.18
Повідомлень: 736

2018-10-24 11:06  
igor911
на Блюбірді.

п.с.тобто ви написати можете,але тільки по фільму і релізу,а якщо ні,то адміни дають кляп,на перший раз.

Ваш часовий пояс: GMT + 2 Години

Нова тема   Відповісти