Вісім подруг Оушена / Ocean's Eight (2018) Remux 1080p Ukr/Eng | Sub Eng

Нові коментарі

Нова тема   Відповісти
Автор Повідомлення
staf777 
Попереджень: 1
Попереджень: 1 


З нами з: 16.11.16
Востаннє: 18.10.18
Повідомлень: 1636

2018-09-01 08:15  
Вісім подруг Оушена / Ocean's Eight (2018) Remux 1080p Ukr/Eng | Sub Eng


Альтернативний постер від Lazzarus'а:



Жанр: бойовик, комедія, кримінальний, трилер
Країна: США



Кінокомпанія: Warner Bros., Village Roadshow Pictures, Rahway Road Productions
Режисер: Гері Росс
Актори: Сандра Буллок, Кейт Бланшетт, Енн Гетевей, Гелена Бонем Картер, Ріанна, Сара Полсон, Мінді Кейлінг, Річард Армітедж, Джеймс Корден, Аквафіна

Сюжет:
Крадіжка – це в генах. Так Деббі, сестра всесвітньо відомого бандита Денні Оушена, 5 років 8 місяців і 12 днів планувала найбільшу справу у своєму житті. Їй потрібно всього лише зібрати команду з таких же відчайдухів-професіоналів, щоби вкрасти діамантове кольє ціною в 150 мільйонів доларів. Найбільша проблема цієї задумки полягає в тому, що ця коштовність буде на очах у сотень людей на заході в музеї "Метрополітен" у Нью-Йорку. Щоб все вийшло, план Деббі повинен втілитися в життя ідеально, без найменшої помилки.


Тривалість: 01:50:07
Якість: Remux 1080p
Відео:
кодек:
розмір кадру: 1920x1080
бітрейт: 23,1 Мб/с

Аудіо # 1:
мова: українська
переклад: професійний дубльований
кодек: 2.0
бітрейт: 192 кб/с

Аудіо # 2:
мова: англійська
переклад: оригінал
кодек: TrueHD+Atmos 7.1
бітрейт: 2782 кб/с

Субтитри: (Forced)
мова: українська
тип: програмні (м'які)
формат: *.srt

Субтитри: (Full, SDH)
мова: англійська
тип: програмні (м'які)
формат: *.srt
Info
General
Unique ID : 286310429997914553089634421108886818073 (0xD765620FB7CBB5CBD68388ABD4994D19)
Complete name : S:\Фільми в HD\Комедія\Ocean's Eight (2018) Remux 1080p [UKR_ENG] [Hurtom].
Format :
Format version : Version 4 / Version 2
File size : 20.1 GiB
Duration : 1 h 50 min
Overall bit rate mode : Variable
Overall bit rate : 26.1 Mb/s
Movie name : Ocean's Eight (2018) Remux 1080p [UKR_ENG] [Hurtom]
Encoded date : UTC 2018-09-01 07:01:01
Writing application : v24.0.0 ('Beyond The Pale') 64-bit
Writing library : libebml v1.3.6 + v1.4.9
Cover : Yes
Attachments : cover

Video
ID : 1
Format : AVC
Format/Info : Advanced Video Codec
Format profile : [email protected]
Format settings : CABAC / 4 Ref Frames
Format settings, CABAC : Yes
Format settings, ReFrames : 4 frames
Codec ID : V_MPEG4/ISO/AVC
Duration : 1 h 50 min
Bit rate mode : Variable
Bit rate : 23.1 Mb/s
Maximum bit rate : 28.0 Mb/s
Width : 1 920 pixels
Height : 1 080 pixels
Display aspect ratio : 16:9
Frame rate mode : Constant
Frame rate : 23.976 (24000/1001) FPS
Color space : YUV
Chroma subsampling : 4:2:0
Bit depth : 8 bits
Scan type : Progressive
Bits/(Pixel*Frame) : 0.464
Stream size : 17.8 GiB (88%)
Language : English
Default : Yes
Forced : No

Audio #1
ID : 2
Format : AC-3
Format/Info : Audio Coding 3
Codec ID : A_AC3
Duration : 1 h 50 min
Bit rate mode : Constant
Bit rate : 192 kb/s
Channel(s) : 2 channels
Channel positions : Front: L R
Sampling rate : 48.0 kHz
Frame rate : 31.250 FPS (1536 SPF)
Bit depth : 16 bits
Compression mode : Lossy
Stream size : 151 MiB (1%)
Title : 2.0 @ 192 kbps
Language : Ukrainian
Service kind : Complete Main
Default : Yes
Forced : Yes

Audio #2
ID : 3
Format : TrueHD
Format profile : TrueHD+Atmos / TrueHD
Codec ID : A_TRUEHD
Duration : 1 h 50 min
Bit rate mode : Variable
Bit rate : 2 782 kb/s
Maximum bit rate : 4 275 kb/s
Channel(s) : Object Based / 8 channels
Channel positions : Object Based / Front: L C R, Side: L R, Back: L R, LFE
Sampling rate : / 48.0 kHz
Frame rate : 1 200.000 FPS (40 SPF)
Compression mode : Lossless
Stream size : 2.14 GiB (11%)
Language : English
Default : No
Forced : No

Text #1
ID : 4
Format : UTF-8
Codec ID : S_TEXT/UTF8
Codec ID/Info : UTF-8 Plain Text
Duration : 1 h 47 min
Bit rate : 7 b/s
Count of elements : 114
Stream size : 5.64 KiB (0%)
Title : Forced
Language : Ukrainian
Default : Yes
Forced : Yes

Text #2
ID : 5
Format : UTF-8
Codec ID : S_TEXT/UTF8
Codec ID/Info : UTF-8 Plain Text
Duration : 1 h 43 min
Bit rate : 66 b/s
Count of elements : 1778
Stream size : 50.7 KiB (0%)
Title : Full
Language : English
Default : No
Forced : No

Text #3
ID : 6
Format : UTF-8
Codec ID : S_TEXT/UTF8
Codec ID/Info : UTF-8 Plain Text
Duration : 1 h 49 min
Bit rate : 69 b/s
Count of elements : 1762
Stream size : 55.7 KiB (0%)
Title : SDH
Language : English
Default : No
Forced : No

Menu
00:00:00.000 : en:00:00:00.000
00:11:18.261 : en:00:11:18.261
00:20:06.747 : en:00:20:06.747
00:31:37.104 : en:00:31:37.104
00:41:29.612 : en:00:41:29.612
00:49:18.914 : en:00:49:18.914
00:56:22.296 : en:00:56:22.296
01:05:50.071 : en:01:05:50.071
01:16:32.546 : en:01:16:32.546
01:27:01.174 : en:01:27:01.174
01:35:42.153 : en:01:35:42.153
01:44:08.659 : en:01:44:08.659
Скріншоти




Джерело: &
Особиста оцінка: 0 - не дивився


Золотий реліз (завантажене не впливає на рейтинг)
 Трекер:    Зареєстрований   

Завантажити / скачати фільм українською



відео для новачків



 Зареєстрований:   2018-09-01 10:59
 Розмір:   20.1 GB 
 Оцінка фільму:   7/10 (Голосів: 11)
   
the prodigy 
Забанено
Забанено


З нами з: 06.08.18
Востаннє: 10.09.18
Повідомлень: 17

2018-09-08 20:26  
Смерть феміністкам!
[email protected] 
Новенький


З нами з: 24.09.12
Востаннє: 01.10.18
Повідомлень: 8

2018-09-11 00:26  
Гарний фільм для перегляду
alesandroua 
Частий відвідувач


З нами з: 09.10.16
Востаннє: 16.10.18
Повідомлень: 39

2018-09-21 14:37  
Досить непоганий фільм з атмосферою і стилістикою "друзів Оушена" але як на мене значно краще було б не змішувати сюжет цих фільмів а робити окрему історію. Звичайно, що він поступається "друзям", але для поціновувачів жанра - варто для колекції, для усіх - варто для перегдяду.
O_omarella! 
Свій


З нами з: 14.06.13
Востаннє: 15.10.18
Повідомлень: 67

2018-10-06 16:27  
ну таке... якщо вийде друга частина навіть качати не буду.
Ваш часовий пояс: GMT + 2 Години

Нова тема   Відповісти