Страховик / Autómata (2014) mini 1080p H.265 2xUkr/Eng | Sub Eng

Нові коментарі

Нова тема   Відповісти
Автор Повідомлення
-Star-Lord- 
VIP


З нами з: 09.08.18
Востаннє: 18.12.18
Повідомлень: 355

2018-09-01 02:00  
Страховик / Autómata (2014) mini 1080p H.265 2xUkr/Eng | Sub Eng

Страховик / Autómata (2014) mini 1080p H.265 2xUkr/Eng | Sub Eng


Жанр: фантастика, трилер
Країна: Іспанія, Болгарія



Кінокомпанія: Green Moon, Nu Boyana Viburno
Режисер: Ґейб Ібаньєс / Gabe Ibáñez
Актори: Антоніо Бандерас / Antonio Banderas, Бірґітта Йорт Серенсен / Birgitte Hjort Sørensen, Мелані Ґріфіт / Melanie Griffith, Ділан МакДермотт / Dylan McDermott, Роберт Форстер / Robert Forster, Тім МакІннерні / Tim McInnerny, Енді Найман / Andy Nyman та інші

Сюжет:
Дія фільму відбувається у далекому майбутньому, коли наш світ зазнав величезних змін – тепер роботи стали майже повноцінними громадянами. Вони гуляють вулицями, працюють на виробництві, допомагають людям у побуті і роблять усе, щоб полегшити існування та життєдіяльність людини. Жак Вокан працює на велику корпорацію, яка є провідним виробником роботів. Їхня продукція – це найбільш якісні та відповідальні роботи. Продаж робототехніки невпинно зростає, у свою чергу Жак займається страхуванням різноманітних випадків, пов’язаних із несанкціонованим використанням, або поведінкою роботів. Цілком задоволений своєю роботою Жак, несподівано стикається з інформацією, яка повністю змінює його ставлення до робототехніки.
Виявляється, що роботи стали однією зі сходинок змови, спрямованої на повне знищення людства. Жак розуміє, що йому необхідно розкрити змову та врятувати людей. Для цього йому доведеться вступити в сутичку з могутньою корпорацією.


Тривалість: 01:49:57
Якість:
Відео:
кодек: H.265 (HEVC)
розмір кадру: 1920 х 816
бітрейт: 1 548 кб/с
бітова глибина: 10 біт
Увага! Перед завантаженням переконайтесь, що ваш пристрій відтворення (та/або ПЗ) підтримує H.265 (HEVC)

Аудіо # 1:
мова: українська
переклад: багатоголосий закадровий
кодек: 2.0
бітрейт: 192 кб/с

Аудіо # 2:
мова: українська
переклад: професійний дубльований
кодек: 2.0
бітрейт: 192 кб/с

Аудіо # 3:
мова: англійська
переклад: оригінал
кодек: 5.1
бітрейт: 448 кб/с

Субтитри # 1-2:
мова: англійська (Full, SDH)
тип: програмні (м'які)
формат: *.srt
Info
Код:
General
Unique ID                                : 162337576393413090014660452793386656077 (0x7A21147771055D6F9B8BC3EB4D71E14D)
Complete name                            : F:\Video\Automata (2014) 1080p H.265 [2xUKR_ENG].
Format                                   :
Format version                           : Version 4 / Version 2
File size                                : 1.83 GiB
Duration                                 : 1 h 49 min
Overall bit rate                         : 2 383 kb/s
Movie name                               : Automata (2014)
Encoded date                             : UTC 2018-08-31 23:53:32
Writing application                      : v20.0.0 ('I Am The Sun') 32-bit
Writing library                          : libebml v1.3.5 + v1.4.8
Cover                                    : Yes
Attachments                              : Cover.jpg

Video
ID                                       : 1
Format                                   : HEVC
Format/Info                              : High Efficiency Video Coding
Format profile                           : Main [email protected]@Main
Codec ID                                 : V_MPEGH/ISO/HEVC
Duration                                 : 1 h 49 min
Bit rate                                 : 1 548 kb/s
Width                                    : 1 920 pixels
Height                                   : 816 pixels
Display aspect ratio                     : 2.35:1
Frame rate mode                          : Constant
Frame rate                               : 23.976 (24000/1001) FPS
Color space                              : YUV
Chroma subsampling                       : 4:2:0
Bit depth                                : 10 bits
Bits/(Pixel*Frame)                       : 0.041
Stream size                              : 1.19 GiB (65%)
Writing library                          : x265 2.6:[Mac OS X][clang 9.1.0][64 bit] 10bit
Encoding settings                        : cpuid=1173503 / frame-threads=3 / wpp / no-pmode / no-pme / no-psnr / no-ssim / log-level=2 / input-csp=1 / input-res=1920x816 / interlace=0 / total-frames=0 / level-idc=0 / high-tier=1 / uhd-bd=0 / ref=4 / no-allow-non-conformance / no-repeat-headers / annexb / no-aud / no-hrd / info / hash=0 / no-temporal-layers / open-gop / min-keyint=24 / keyint=240 / bframes=4 / b-adapt=2 / b-pyramid / bframe-bias=0 / rc-lookahead=25 / lookahead-slices=4 / scenecut=40 / no-intra-refresh / ctu=64 / min-cu-size=8 / no-rect / no-amp / max-tu-size=32 / tu-inter-depth=1 / tu-intra-depth=1 / limit-tu=0 / rdoq-level=2 / dynamic-rd=0.00 / no-ssim-rd / signhide / no-tskip / nr-intra=0 / nr-inter=0 / no-constrained-intra / no-strong-intra-smoothing / max-merge=3 / limit-refs=3 / limit-modes / me=3 / subme=3 / merange=57 / temporal-mvp / weightp / no-weightb / no-analyze-src-pics / deblock=0:0 / sao / no-sao-non-deblock / rd=4 / no-early-skip / rskip / no-fast-intra / no-tskip-fast / no-cu-lossless / no-b-intra / no-splitrd-skip / rdpenalty=0 / psy-rd=2.00 / psy-rdoq=1.00 / no-rd-refine / analysis-reuse-mode=0 / no-lossless / cbqpoffs=0 / crqpoffs=0 / rc=crf / crf=22.0 / qcomp=0.60 / qpstep=4 / stats-write=0 / stats-read=0 / ipratio=1.40 / pbratio=1.30 / aq-mode=1 / aq-strength=1.00 / cutree / zone-count=0 / no-strict-cbr / qg-size=32 / no-rc-grain / qpmax=69 / qpmin=0 / no-const-vbv / sar=1 / overscan=0 / videoformat=5 / range=0 / colorprim=1 / transfer=1 / colormatrix=1 / chromaloc=0 / display-window=0 / max-cll=0,0 / min-luma=0 / max-luma=1023 / log2-max-poc-lsb=8 / vui-timing-info / vui-hrd-info / slices=1 / no-opt-qp-pps / no-opt-ref-list-length-pps / no-multi-pass-opt-rps / scenecut-bias=0.05 / no-opt-cu-delta-qp / no-aq-motion / no-hdr / no-hdr-opt / no-dhdr10-opt / analysis-reuse-level=5 / scale-factor=0 / refine-intra=0 / refine-inter=0 / refine-mv=0 / no-limit-sao / ctu-info=0 / no-lowpass-dct / refine-mv-type=0 / copy-pic=1
Language                                 : English
Default                                  : Yes
Forced                                   : No
Color range                              : Limited
Color primaries                          : BT.709
Transfer characteristics                 : BT.709
Matrix coefficients                      : BT.709

Audio #1
ID                                       : 2
Format                                   : AC-3
Format/Info                              : Audio Coding 3
Codec ID                                 : A_AC3
Duration                                 : 1 h 49 min
Bit rate mode                            : Constant
Bit rate                                 : 192 kb/s
Channel(s)                               : 2 channels
Channel positions                        : Front: L R
Sampling rate                            : 48.0 kHz
Frame rate                               : 31.250 FPS (1536 SPF)
Bit depth                                : 16 bits
Compression mode                         : Lossy
Delay relative to video                  : 2 s 900 ms
Stream size                              : 151 MiB (8%)
Title                                    : UKR (2+2)
Language                                 : Ukrainian
Service kind                             : Complete Main
Default                                  : Yes
Forced                                   : No

Audio #2
ID                                       : 3
Format                                   : AC-3
Format/Info                              : Audio Coding 3
Codec ID                                 : A_AC3
Duration                                 : 1 h 49 min
Bit rate mode                            : Constant
Bit rate                                 : 192 kb/s
Channel(s)                               : 2 channels
Channel positions                        : Front: L R
Sampling rate                            : 48.0 kHz
Frame rate                               : 31.250 FPS (1536 SPF)
Bit depth                                : 16 bits
Compression mode                         : Lossy
Delay relative to video                  : 2 s 900 ms
Stream size                              : 151 MiB (8%)
Title                                    : UKR (DUB)
Language                                 : Ukrainian
Service kind                             : Complete Main
Default                                  : No
Forced                                   : Yes

Audio #3
ID                                       : 4
Format                                   : AC-3
Format/Info                              : Audio Coding 3
Codec ID                                 : A_AC3
Duration                                 : 1 h 49 min
Bit rate mode                            : Constant
Bit rate                                 : 448 kb/s
Channel(s)                               : 6 channels
Channel positions                        : Front: L C R, Side: L R, LFE
Sampling rate                            : 48.0 kHz
Frame rate                               : 31.250 FPS (1536 SPF)
Bit depth                                : 16 bits
Compression mode                         : Lossy
Delay relative to video                  : 2 s 900 ms
Stream size                              : 352 MiB (19%)
Title                                    : Original | DD 5.1 @ 448 kbps
Language                                 : English
Service kind                             : Complete Main
Default                                  : No
Forced                                   : No

Text #1
ID                                       : 5
Format                                   : UTF-8
Codec ID                                 : S_TEXT/UTF8
Codec ID/Info                            : UTF-8 Plain Text
Duration                                 : 1 h 42 min
Bit rate                                 : 38 b/s
Count of elements                        : 763
Stream size                              : 28.5 KiB (0%)
Title                                    : Full
Language                                 : English
Default                                  : No
Forced                                   : No

Text #2
ID                                       : 6
Format                                   : UTF-8
Codec ID                                 : S_TEXT/UTF8
Codec ID/Info                            : UTF-8 Plain Text
Duration                                 : 1 h 42 min
Bit rate                                 : 39 b/s
Count of elements                        : 814
Stream size                              : 29.7 KiB (0%)
Title                                    : SDH
Language                                 : English
Default                                  : No
Forced                                   : No

Menu
00:00:00.000                             : :Chapter 1
00:14:50.431                             : :Chapter 2
00:27:51.587                             : :Chapter 3
00:41:15.723                             : :Chapter 4
00:54:00.446                             : :Chapter 5
01:05:32.846                             : :Chapter 6
01:17:30.813                             : :Chapter 7
01:26:25.347                             : :Chapter 8
01:35:09.787                             : :Chapter 9
01:44:56.916                             : :Chapter 10
Скріншоти




Джерело:
Особиста оцінка: 0 - не дивився
ЗАЛИШАЙТЕСЬ ЯКОМОГА ДОВШЕ НА РОЗДАЧІ!
ЗАВАНТАЖИВ САМ - ДАЙ ЗАВАНТАЖИТИ ІНШИМ


 Трекер:    Зареєстрований   

Завантажити / скачати фільм українською



відео для новачків



 Зареєстрований:   2018-09-01 02:00
 Розмір:   1.83 GB 
 Оцінка фільму:   9.3/10 (Голосів: 3)
   
Інші релізи
   Страховик / Autómata (2014) AVC 2xUkr/Eng | Sub Eng drop_plz  4 / 0   2.13 GB   2018-07-28 07:37 
   Страховик / Autómata (2014) 1080p Ukr/Eng | Sub Eng 11FrYkT  2 / 0   8.17 GB   2014-10-31 18:34 
   Страховик / Autómata (2014) 720p Ukr/Eng | Sub Eng 11FrYkT  1 / 0   4.51 GB   2014-10-31 16:36 
   Страховик / Autómata (2014) patriot2305  7 / 0   1.45 GB   2014-10-30 09:43 
ki18 
Новенький


З нами з: 03.09.18
Востаннє: 06.11.18
Повідомлень: 5

2018-09-25 22:11  
20 хвилин працює нормально, а потім зупиняється. Дивлюсь з флешки у телевизорі. Може з флешкою щось негаразд? Але інші відео йдуть нормально. Скачував декілька версій цого фільму, теж саме, не показує.
---
Виявилось, що флешка не усі файли показує. Інша флешка показує краще.
---
Відформатував флешку, стало працювать!.. ))

Ваш часовий пояс: GMT + 2 Години

Нова тема   Відповісти