Таксі 5 / Taxi 5 (2018) 1080p H.265 Ukr/Fre | Sub Eng/Fre

Нові коментарі

Нова тема   Відповісти
Автор Повідомлення
-Star-Lord- 
Поважний учасник


З нами з: 09.08.18
Востаннє: 19.10.18
Повідомлень: 209

2018-09-01 02:44  
Таксі 5 / Taxi 5 (2018) 1080p H.265 Ukr/Fre | Sub Eng/Fre

Таксі 5 / Taxi 5 (2018) 1080p H.265 Ukr/Fre | Sub Eng/Fre


Жанр: бойовик, комедія, кримінал
Країна: Франція



Кінокомпанія: EuropaCorp, T5 Production, ARP Sélection
Режисер: Франк Ґастамбід
Актори: Сабріна Уазані, Бернар Фарсі, Франк Ґастамбід, Малік Бенталья, Сальваторе Еспозіто, Едуар Монтут, Санд Ван Рой, Рамзі Бедіа, Івонн Граделе, Мусса Мааскрі та інші

Сюжет:
Геніальний молодий водій з Парижу Сільвен Маро працює у муніципальній поліції Марселю. Пан Жібер, колишній комісар поліції, а нині мер міста, доручає «супер-поліцейському» Маро затримку небезпечної банди італійців. Злочинці грабують ювелірні крамниці, тікаючи від переслідування на потужних Ferrari. Аби виконати свою місію, Сільвен змушений буде співпрацювати з найгіршим водієм міста Едді Маклуфом, племінником уславленого таксиста Даніеля.


Тривалість: 01:41:54
Якість:
Відео:
кодек: H.265 (HEVC)
розмір кадру: 1920 х 804
бітрейт: 7 008 кб/с
бітова глибина: 10 біт
Увага! Перед завантаженням переконайтесь, що ваш пристрій відтворення (та/або ПЗ) підтримує H.265 (HEVC)

Аудіо # 1:
мова: українська
переклад: професійний дубльований
кодек: 2.0
бітрейт: 192 кб/с

Аудіо # 2:
мова: французька
переклад: оригінал
кодек: 5.1
бітрейт: 448 кб/с

Субтитри # 1:
мова: англійська
тип: програмні (м'які)
формат: *.srt

Субтитри # 2:
мова: французька
тип: програмні (м'які)
формат: *.srt
Info
Код:
General
Unique ID                                : 40609409763228428373270538200125523429 (0x1E8D167BF0E431A5D891215778DBC5E5)
Complete name                            : F:\Video\Taxi 5 (2018) 1080p H.265 [UKR_FRE].
Format                                   :
Format version                           : Version 4 / Version 2
File size                                : 5.45 GiB
Duration                                 : 1 h 41 min
Overall bit rate                         : 7 654 kb/s
Movie name                               : Taxi 5 (2018)
Encoded date                             : UTC 2018-08-30 10:57:21
Writing application                      : v20.0.0 ('I Am The Sun') 32-bit
Writing library                          : libebml v1.3.5 + v1.4.8
Cover                                    : Yes
Attachments                              : cover

Video
ID                                       : 1
Format                                   : HEVC
Format/Info                              : High Efficiency Video Coding
Format profile                           : Main [email protected]@Main
Codec ID                                 : V_MPEGH/ISO/HEVC
Duration                                 : 1 h 41 min
Bit rate                                 : 7 008 kb/s
Width                                    : 1 920 pixels
Height                                   : 804 pixels
Display aspect ratio                     : 2.40:1
Frame rate mode                          : Constant
Frame rate                               : 24.000 FPS
Color space                              : YUV
Chroma subsampling                       : 4:2:0
Bit depth                                : 10 bits
Bits/(Pixel*Frame)                       : 0.189
Stream size                              : 4.99 GiB (91%)
Writing library                          : x265 2.8+66-88ee12651e30:[Windows][GCC 6.3.0][64 bit] 10bit
Encoding settings                        : cpuid=1111039 / frame-threads=16 / numa-pools=8,8,8,8 / wpp / no-pmode / no-pme / no-psnr / no-ssim / log-level=2 / input-csp=1 / input-res=1920x804 / interlace=0 / total-frames=146736 / level-idc=41 / high-tier=0 / uhd-bd=0 / ref=5 / no-allow-non-conformance / no-repeat-headers / annexb / no-aud / no-hrd / info / hash=0 / no-temporal-layers / no-open-gop / min-keyint=1 / keyint=250 / gop-lookahead=0 / bframes=8 / b-adapt=2 / b-pyramid / bframe-bias=0 / rc-lookahead=60 / lookahead-slices=4 / scenecut=40 / radl=0 / no-intra-refresh / ctu=16 / min-cu-size=8 / no-rect / no-amp / max-tu-size=16 / tu-inter-depth=2 / tu-intra-depth=2 / limit-tu=4 / rdoq-level=1 / dynamic-rd=0.00 / no-ssim-rd / signhide / no-tskip / nr-intra=0 / nr-inter=0 / no-constrained-intra / no-strong-intra-smoothing / max-merge=5 / limit-refs=3 / limit-modes / me=3 / subme=5 / merange=60 / temporal-mvp / weightp / no-weightb / no-analyze-src-pics / deblock=0:0 / no-sao / no-sao-non-deblock / rd=5 / no-early-skip / rskip / no-fast-intra / no-tskip-fast / no-cu-lossless / b-intra / no-splitrd-skip / rdpenalty=0 / psy-rd=2.00 / psy-rdoq=1.00 / no-rd-refine / no-lossless / cbqpoffs=0 / crqpoffs=0 / rc=abr / bitrate=7019 / qcomp=0.60 / qpstep=4 / stats-write=0 / stats-read=2 / cplxblur=20.0 / qblur=0.5 / ipratio=1.40 / pbratio=1.30 / aq-mode=1 / aq-strength=1.00 / cutree / zone-count=0 / no-strict-cbr / qg-size=16 / no-rc-grain / qpmax=69 / qpmin=0 / no-const-vbv / sar=1 / overscan=0 / videoformat=5 / range=0 / colorprim=1 / transfer=1 / colormatrix=1 / chromaloc=0 / display-window=0 / max-cll=0,0 / min-luma=0 / max-luma=1023 / log2-max-poc-lsb=8 / vui-timing-info / vui-hrd-info / slices=1 / no-opt-qp-pps / no-opt-ref-list-length-pps / no-multi-pass-opt-rps / scenecut-bias=0.05 / no-opt-cu-delta-qp / no-aq-motion / no-hdr / no-hdr-opt / no-dhdr10-opt / no-idr-recovery-sei / analysis-reuse-level=5 / scale-factor=0 / refine-intra=0 / refine-inter=0 / refine-mv=0 / no-limit-sao / ctu-info=0 / no-lowpass-dct / refine-mv-type=0 / copy-pic=1 / max-ausize-factor=1.0 / no-dynamic-refine / no-single-sei
Default                                  : Yes
Forced                                   : No
Color range                              : Limited
Color primaries                          : BT.709
Transfer characteristics                 : BT.709
Matrix coefficients                      : BT.709

Audio #1
ID                                       : 2
Format                                   : AC-3
Format/Info                              : Audio Coding 3
Codec ID                                 : A_AC3
Duration                                 : 1 h 41 min
Bit rate mode                            : Constant
Bit rate                                 : 192 kb/s
Channel(s)                               : 2 channels
Channel positions                        : Front: L R
Sampling rate                            : 48.0 kHz
Frame rate                               : 31.250 FPS (1536 SPF)
Bit depth                                : 16 bits
Compression mode                         : Lossy
Stream size                              : 140 MiB (3%)
Title                                    : 2.0 @ 192 kbps
Language                                 : Ukrainian
Service kind                             : Complete Main
Default                                  : Yes
Forced                                   : Yes

Audio #2
ID                                       : 3
Format                                   : AC-3
Format/Info                              : Audio Coding 3
Codec ID                                 : A_AC3
Duration                                 : 1 h 41 min
Bit rate mode                            : Constant
Bit rate                                 : 448 kb/s
Channel(s)                               : 6 channels
Channel positions                        : Front: L C R, Side: L R, LFE
Sampling rate                            : 48.0 kHz
Frame rate                               : 31.250 FPS (1536 SPF)
Bit depth                                : 16 bits
Compression mode                         : Lossy
Stream size                              : 327 MiB (6%)
Title                                    : 5.1 @ 448 kbps
Language                                 : French
Service kind                             : Complete Main
Default                                  : No
Forced                                   : No

Text #1
ID                                       : 4
Format                                   : UTF-8
Codec ID                                 : S_TEXT/UTF8
Codec ID/Info                            : UTF-8 Plain Text
Duration                                 : 1 h 41 min
Bit rate                                 : 61 b/s
Count of elements                        : 2159
Stream size                              : 45.8 KiB (0%)
Language                                 : English
Default                                  : No
Forced                                   : No

Text #2
ID                                       : 5
Format                                   : UTF-8
Codec ID                                 : S_TEXT/UTF8
Codec ID/Info                            : UTF-8 Plain Text
Duration                                 : 1 h 41 min
Bit rate                                 : 65 b/s
Count of elements                        : 2157
Stream size                              : 48.6 KiB (0%)
Language                                 : French
Default                                  : No
Forced                                   : No

Menu
00:00:00.000                             : en:00:00:00.000
00:09:24.167                             : en:00:09:24.167
00:17:19.417                             : en:00:17:19.417
00:27:35.000                             : en:00:27:35.000
00:34:09.750                             : en:00:34:09.750
00:41:46.833                             : en:00:41:46.833
00:50:04.125                             : en:00:50:04.125
00:58:29.625                             : en:00:58:29.625
01:06:05.708                             : en:01:06:05.708
01:14:53.167                             : en:01:14:53.167
01:23:59.333                             : en:01:23:59.333
01:32:28.750                             : en:01:32:28.750
Скріншоти




Джерело:
Особиста оцінка: 0 - не дивився
ЗАЛИШАЙТЕСЬ ЯКОМОГА ДОВШЕ НА РОЗДАЧІ!
ЗАВАНТАЖИВ САМ - ДАЙ ЗАВАНТАЖИТИ ІНШИМ


 Трекер:    Зареєстрований   

Завантажити / скачати фільм українською



відео для новачків



 Зареєстрований:   2018-09-01 02:44
 Розмір:   5.45 GB 
 Оцінка фільму:   9/10 (Голосів: 3)
   
Інші релізи
   Таксі 5 / Taxi 5 (2018) Remux 1080p Ukr/Fre | Sub Eng staf777  5 / 0   20.14 GB   2018-08-15 18:16 
   Таксі 5 / Taxi 5 (2018) 1080p Ukr/Fre | Sub Eng staf777  13 / 0   7.43 GB   2018-08-15 16:01 
   Таксі 5 / Taxi 5 (2018) 720p Ukr/Fre | Sub Eng/Fre 11FrYkT  49 / 0   6.17 GB   2018-08-08 07:39 
   Таксі 5 / Taxi 5 (2018) AVC Ukr/Fre uafilm.tv  138 / 0   1.58 GB   2018-08-08 01:20 
tirex50 
Новенький


З нами з: 21.06.11
Востаннє: 19.10.18
Повідомлень: 9

2018-09-01 08:29  
Мені чомусь здається що навіть український дубляж не врятує це кіно, але подивимось.
andriy_z 
Новенький


З нами з: 20.07.08
Востаннє: 16.10.18
Повідомлень: 8

2018-09-03 21:41  
дуже-дуже слабенько, не вартує витраченого часу на перегляд навіть 1 раз.
0mage0 
VIP


З нами з: 06.10.15
Востаннє: 19.10.18
Повідомлень: 368

2018-10-15 12:23  
Дивитися можна, є смішні моменти, особливо мер Happy Втім, зі срачкою/ригачкою трошки перебір, як на мене Happy
Ваш часовий пояс: GMT + 2 Години

Нова тема   Відповісти