Імперія сонця / Empire of the Sun (1987) 1080p H.265 Ukr/Eng | Sub Eng

Нові коментарі

Нова тема   Відповісти
Автор Повідомлення
-Star-Lord- 
VIP


З нами з: 09.08.18
Востаннє: 10.12.18
Повідомлень: 329

2018-09-01 01:34  
Імперія сонця / Empire of the Sun (1987) 1080p H.265 Ukr/Eng | Sub Eng

Імперія сонця / Empire of the Sun (1987) 1080p H.265 Ukr/Eng | Sub Eng


Жанр: Військовий, Драма, Біографія
Країна: США



Кінокомпанія: Amblin Entertainment, Warner Bros. Pictures
Режисер: Стівен Спілберг
Актори: Крістіан Бейл, Джон Малковіч, Міранда Річардсон, Найджел Хеверс, Джо Пантоліано, Леслі Філліпс, Емілі Річард, Руперт Фрейзер, Пітер Гейл та інші.

Сюжет:
Це натхненна, насичена захоплюючими подіями епічна драма, що оповідає про маленького хлопчика на великій війні.
Цей хлопчик - Джим Грехем, юний англієць, чий непереможний дух високо і вільно здіймається над тюремною жорстокістю японського табору для увязнених, куди він потрапив під час Другої світової війни. Саме його очима ми бачимо всю велич і жахи війни. І ми бачимо, як слабшають нитки, що пов'язують цю дитину з дитинством, у міру того як його боротьба за виживання стає все запеклішою.
Картина, заснована на знаменитому бестселері Дж. Р. Балларда, стала першим фільмом крупної голлівудської студії, знятим в Китайській Народній Республіці. А в 1987 році він завоював премії Національної Асоціації Кінокритиків за кращий кінофільм і кращу режисуру, а також спеціальну нагороду "за видатне виконання дитячої ролі" Крістіаном Бейлом, що зіграв Джима.


Тривалість: 02:32:49
Якість:
Відео:
кодек: H.265 (HEVC)
розмір кадру: 1920 х 1080
бітрейт: 6 540 кб/с
бітова глибина: 10 біт
Увага! Перед завантаженням переконайтесь, що ваш пристрій відтворення (та/або ПЗ) підтримує H.265 (HEVC)

Аудіо # 1:
мова: українська
переклад: багатоголосий закадровий
кодек: 2.0
бітрейт: 192 кб/с

Аудіо # 2:
мова: англійська
переклад: оригінал
кодек: 5.1
бітрейт: 448 кб/с

Субтитри:
мова: англійська
тип: програмні (м'які)
формат: *.srt
Info
Код:
General
Unique ID                                : 316360280161826623886870027096508604863 (0xEE00C60FC03B3229661F9E645DD421BF)
Complete name                            : F:\Video\Empire of the Sun (1987) 1080p H.265 [UKR_ENG].
Format                                   :
Format version                           : Version 4 / Version 2
File size                                : 7.67 GiB
Duration                                 : 2 h 32 min
Overall bit rate                         : 7 182 kb/s
Movie name                               : Empire of the Sun (1987)
Encoded date                             : UTC 2018-08-30 11:46:22
Writing application                      : v20.0.0 ('I Am The Sun') 32-bit
Writing library                          : libebml v1.3.5 + v1.4.8
Cover                                    : Yes
Attachments                              : cover2.jpg

Video
ID                                       : 1
Format                                   : HEVC
Format/Info                              : High Efficiency Video Coding
Format profile                           : Main [email protected]@Main
Codec ID                                 : V_MPEGH/ISO/HEVC
Duration                                 : 2 h 32 min
Bit rate                                 : 6 540 kb/s
Width                                    : 1 920 pixels
Height                                   : 1 080 pixels
Display aspect ratio                     : 16:9
Frame rate mode                          : Constant
Frame rate                               : 23.976 (24000/1001) FPS
Color space                              : YUV
Chroma subsampling                       : 4:2:0
Bit depth                                : 10 bits
Bits/(Pixel*Frame)                       : 0.132
Stream size                              : 6.98 GiB (91%)
Writing library                          : x265 2.6:[Mac OS X][clang 9.1.0][64 bit] 10bit
Encoding settings                        : cpuid=1173503 / frame-threads=3 / wpp / no-pmode / no-pme / no-psnr / no-ssim / log-level=2 / input-csp=1 / input-res=1920x1080 / interlace=0 / total-frames=0 / level-idc=0 / high-tier=1 / uhd-bd=0 / ref=4 / no-allow-non-conformance / no-repeat-headers / annexb / no-aud / no-hrd / info / hash=0 / no-temporal-layers / open-gop / min-keyint=24 / keyint=240 / bframes=4 / b-adapt=2 / b-pyramid / bframe-bias=0 / rc-lookahead=25 / lookahead-slices=4 / scenecut=40 / no-intra-refresh / ctu=64 / min-cu-size=8 / no-rect / no-amp / max-tu-size=32 / tu-inter-depth=1 / tu-intra-depth=1 / limit-tu=0 / rdoq-level=2 / dynamic-rd=0.00 / no-ssim-rd / signhide / no-tskip / nr-intra=0 / nr-inter=0 / no-constrained-intra / no-strong-intra-smoothing / max-merge=3 / limit-refs=3 / limit-modes / me=3 / subme=3 / merange=57 / temporal-mvp / weightp / no-weightb / no-analyze-src-pics / deblock=0:0 / sao / no-sao-non-deblock / rd=4 / no-early-skip / rskip / no-fast-intra / no-tskip-fast / no-cu-lossless / no-b-intra / no-splitrd-skip / rdpenalty=0 / psy-rd=2.00 / psy-rdoq=1.00 / no-rd-refine / analysis-reuse-mode=0 / no-lossless / cbqpoffs=0 / crqpoffs=0 / rc=crf / crf=22.0 / qcomp=0.60 / qpstep=4 / stats-write=0 / stats-read=0 / ipratio=1.40 / pbratio=1.30 / aq-mode=1 / aq-strength=1.00 / cutree / zone-count=0 / no-strict-cbr / qg-size=32 / no-rc-grain / qpmax=69 / qpmin=0 / no-const-vbv / sar=1 / overscan=0 / videoformat=5 / range=0 / colorprim=1 / transfer=1 / colormatrix=1 / chromaloc=0 / display-window=0 / max-cll=0,0 / min-luma=0 / max-luma=1023 / log2-max-poc-lsb=8 / vui-timing-info / vui-hrd-info / slices=1 / no-opt-qp-pps / no-opt-ref-list-length-pps / no-multi-pass-opt-rps / scenecut-bias=0.05 / no-opt-cu-delta-qp / no-aq-motion / no-hdr / no-hdr-opt / no-dhdr10-opt / analysis-reuse-level=5 / scale-factor=0 / refine-intra=0 / refine-inter=0 / refine-mv=0 / no-limit-sao / ctu-info=0 / no-lowpass-dct / refine-mv-type=0 / copy-pic=1
Language                                 : English
Default                                  : Yes
Forced                                   : No
Color range                              : Limited
Color primaries                          : BT.709
Transfer characteristics                 : BT.709
Matrix coefficients                      : BT.709

Audio #1
ID                                       : 2
Format                                   : AC-3
Format/Info                              : Audio Coding 3
Codec ID                                 : A_AC3
Duration                                 : 2 h 32 min
Bit rate mode                            : Constant
Bit rate                                 : 192 kb/s
Channel(s)                               : 2 channels
Channel positions                        : Front: L R
Sampling rate                            : 48.0 kHz
Frame rate                               : 31.250 FPS (1536 SPF)
Bit depth                                : 16 bits
Compression mode                         : Lossy
Stream size                              : 210 MiB (3%)
Title                                    : 1+1
Language                                 : Ukrainian
Service kind                             : Complete Main
Default                                  : Yes
Forced                                   : No

Audio #2
ID                                       : 3
Format                                   : AC-3
Format/Info                              : Audio Coding 3
Codec ID                                 : A_AC3
Duration                                 : 2 h 32 min
Bit rate mode                            : Constant
Bit rate                                 : 448 kb/s
Channel(s)                               : 6 channels
Channel positions                        : Front: L C R, Side: L R, LFE
Sampling rate                            : 48.0 kHz
Frame rate                               : 31.250 FPS (1536 SPF)
Bit depth                                : 16 bits
Compression mode                         : Lossy
Stream size                              : 490 MiB (6%)
Title                                    : Original
Language                                 : English
Service kind                             : Complete Main
Default                                  : No
Forced                                   : No

Text
ID                                       : 4
Format                                   : UTF-8
Codec ID                                 : S_TEXT/UTF8
Codec ID/Info                            : UTF-8 Plain Text
Duration                                 : 2 h 24 min
Bit rate                                 : 24 b/s
Count of elements                        : 865
Stream size                              : 26.3 KiB (0%)
Language                                 : English
Default                                  : Yes
Forced                                   : No

Menu #1
00:00:00.000                             : :Chapter 1
00:01:14.575                             : :Chapter 2
00:04:19.426                             : :Chapter 3
00:07:44.214                             : :Chapter 4
00:09:22.479                             : :Chapter 5
00:13:19.090                             : :Chapter 6
00:15:31.973                             : :Chapter 7
00:20:46.036                             : :Chapter 8
00:23:34.872                             : :Chapter 9
00:28:02.723                             : :Chapter 10
00:32:15.100                             : :Chapter 11
00:36:41.199                             : :Chapter 12
00:41:46.254                             : :Chapter 13
00:43:49.961                             : :Chapter 14
00:49:00.813                             : :Chapter 15
00:52:24.016                             : :Chapter 16
00:54:19.256                             : :Chapter 17
01:01:03.535                             : :Chapter 18
01:05:38.268                             : :Chapter 19
01:08:20.930                             : :Chapter 20
01:09:55.650                             : :Chapter 21
01:13:44.837                             : :Chapter 22
01:16:20.701                             : :Chapter 23
01:20:20.107                             : :Chapter 24
01:24:16.385                             : :Chapter 25
01:26:56.503                             : :Chapter 26
01:30:19.164                             : :Chapter 27
01:37:04.569                             : :Chapter 28
01:39:23.958                             : :Chapter 29
01:42:58.506                             : :Chapter 30
01:47:11.008                             : :Chapter 31
01:48:50.399                             : :Chapter 32
01:52:21.193                             : :Chapter 33
01:57:23.245                             : :Chapter 34
01:59:08.558                             : :Chapter 35
02:01:27.447                             : :Chapter 36
02:03:14.429                             : :Chapter 37
02:05:00.410                             : :Chapter 38
02:07:15.962                             : :Chapter 39
02:09:11.911                             : :Chapter 40
02:12:12.091                             : :Chapter 41
02:16:22.174                             : :Chapter 42
02:20:10.277                             : :Chapter 43
02:22:10.689                             : :Chapter 44
02:26:17.811                             : :Chapter 45

Menu #2
00:00:00.000                             : en:Chapter 01
00:01:14.574                             : en:Chapter 02
00:04:19.425                             : en:Chapter 03
00:07:44.130                             : en:Chapter 04
00:09:22.478                             : en:Chapter 05
00:13:19.089                             : en:Chapter 06
00:15:31.889                             : en:Chapter 07
00:20:45.953                             : en:Chapter 08
00:23:34.788                             : en:Chapter 09
00:28:02.722                             : en:Chapter 10
00:32:15.099                             : en:Chapter 11
00:36:41.199                             : en:Chapter 12
00:41:46.212                             : en:Chapter 13
00:43:49.960                             : en:Chapter 14
00:49:00.812                             : en:Chapter 15
00:52:23.932                             : en:Chapter 16
00:54:19.256                             : en:Chapter 17
01:01:03.534                             : en:Chapter 18
01:05:38.267                             : en:Chapter 19
01:08:20.888                             : en:Chapter 20
01:09:55.566                             : en:Chapter 21
01:13:44.795                             : en:Chapter 22
01:16:20.659                             : en:Chapter 23
01:20:20.106                             : en:Chapter 24
01:24:16.384                             : en:Chapter 25
01:26:56.502                             : en:Chapter 26
01:30:19.163                             : en:Chapter 27
01:37:04.568                             : en:Chapter 28
01:39:23.958                             : en:Chapter 29
01:42:58.505                             : en:Chapter 30
01:47:10.966                             : en:Chapter 31
01:48:50.357                             : en:Chapter 32
01:52:21.192                             : en:Chapter 33
01:57:23.244                             : en:Chapter 34
01:59:08.516                             : en:Chapter 35
02:01:27.363                             : en:Chapter 36
02:03:14.428                             : en:Chapter 37
02:05:00.409                             : en:Chapter 38
02:07:15.961                             : en:Chapter 39
02:09:11.869                             : en:Chapter 40
02:12:12.007                             : en:Chapter 41
02:16:22.174                             : en:Chapter 42
02:20:10.235                             : en:Chapter 43
02:22:10.647                             : en:Chapter 44
02:26:17.810                             : en:Chapter 45
Скріншоти




Джерело:
Особиста оцінка: 0 - не дивився
ЗАЛИШАЙТЕСЬ ЯКОМОГА ДОВШЕ НА РОЗДАЧІ!
ЗАВАНТАЖИВ САМ - ДАЙ ЗАВАНТАЖИТИ ІНШИМ


Срібний реліз (на рейтинг впливає 50% завантаженого)
 Трекер:    Зареєстрований   

Завантажити / скачати фільм українською



відео для новачків



 Зареєстрований:   2018-09-01 01:34
 Розмір:   7.67 GB 
 Оцінка фільму:   10/10 (Голосів: 1)
   
Інші релізи
   Імперія сонця / Empire of the Sun (1987) sokeel  4 / 0   1.47 GB   2017-10-05 17:12 
   Імперія сонця / Empire of the Sun (1987) 720p Ukr/Eng | Sub Eng Dim-ON  1 / 0   7.03 GB   2012-11-03 19:36 
   Імперія сонця / Empire of the Sun (1987) Ukr/Eng | Sub Eng Romario_O  3 / 0   2.91 GB   2012-11-02 19:33 
Ваш часовий пояс: GMT + 2 Години

Нова тема   Відповісти