Карате Кiд / Карате Пацан / The Karate Kid (2010) 1080p H.265 3xUkr/Eng | Sub Eng

Нові коментарі

Нова тема   Відповісти
Останній раз роздавалося tatiana_pyvovarova (2018-12-12)
Автор Повідомлення
-Star-Lord- 
VIP


З нами з: 09.08.18
Востаннє: 13.12.18
Повідомлень: 342

2018-09-01 01:28  
Карате Кiд / Карате Пацан / The Karate Kid (2010) 1080p H.265 3xUkr/Eng | Sub Eng

Карате Кiд / Карате Пацан / The Karate Kid (2010) 1080p H.265 3xUkr/Eng | Sub Eng


Жанр: екшн, драма, сімейний, спорт
Країна: США, Китай



Кінокомпанія: Columbia Pictures, China Film Group, Jerry Weintraub Productions
Режисер: Гарольд Цварт / Harald Zwart
Актори: Джейден Сміт / Jaden Smith, Джекі Чан / Jackie Chan, Тараджі П. Генсон / Taraji P. Henson, Веньвень Хань / Wenwen Han, Ю Ронгуан / Yu Rongguang, Джаред Міннс / Jared Minns, Чжао Ї / Yi Zhao, Бо Чжан / Bo Zhang, Люк Карберрі / Luke Carberry

Сюжет:
12-річний хлопчик на ім'я Дре Паркер (Джейден Сміт) був, можливо, найпопулярнішим хлопчиком в Детройті, але зміни в кар'єрі його матері приводять їх обох до... Китаю. Дре подобається його нова однокласниця Мей Їн, але культурні відмінності роблять їх дружбу неможливою. І навіть гірше, почуття Дре до Мей роблять Чена, хлопчика, який просто ас у карате, його ворогом, він з легкістю вкладає Дре на лопатки на очах у всієї школи. Несподівано в житті Дре з'являється містер Хань (Джекі Чан), який, будучи таємним майстром кунг-фу, вчить Дре, як потрібно боротися. Містер Хань вчить хлопчика не бойовим прийомам, а зваженості і спокою – і це стане найцікавішою пригодою в житті хлопчика.


Тривалість: 02:20:01
Якість:
Відео:
кодек: H.265 (HEVC)
розмір кадру: 1920 х 804
бітрейт: 7 180 кб/с
бітова глибина: 10 біт
Увага! Перед завантаженням переконайтесь, що ваш пристрій відтворення (та/або ПЗ) підтримує H.265 (HEVC)

Аудіо # 1:
мова: українська
переклад: професійний дубльований
кодек: 5.1
бітрейт: 640 кб/с

Аудіо # 2:
мова: українська
переклад: багатоголосий закадровий
кодек: 2.0
бітрейт: 192 кб/с

Аудіо # 3:
мова: українська
переклад: двоголосий закадровий
кодек: 2.0
бітрейт: 192 кб/с

Аудіо # 4:
мова: англійська
переклад: оригінал
кодек: 5.1
бітрейт: 384 кб/с

Субтитри # 1:
мова: українська (Forced)
тип: пререндерні
формат: *.srt

Субтитри # 2:
мова: англійська
тип: програмні (м'які)
формат: *.srt
Info
Код:
General
Unique ID                                : 189151119111307430999597947374096173184 (0x8E4D2E30BB3DFB01C69A44608E5D4880)
Complete name                            : F:\Video\The Karate Kid (2010) 1080p H.265 [3xUKR_ENG].
Format                                   :
Format version                           : Version 4 / Version 2
File size                                : 8.40 GiB
Duration                                 : 2 h 20 min
Overall bit rate                         : 8 590 kb/s
Movie name                               : The Karate Kid (2010)
Encoded date                             : UTC 2018-08-31 07:27:06
Writing application                      : v20.0.0 ('I Am The Sun') 32-bit
Writing library                          : libebml v1.3.5 + v1.4.8
Cover                                    : Yes
Attachments                              : cover.jpg

Video
ID                                       : 1
Format                                   : HEVC
Format/Info                              : High Efficiency Video Coding
Format profile                           : Main [email protected]@High
Codec ID                                 : V_MPEGH/ISO/HEVC
Duration                                 : 2 h 20 min
Bit rate                                 : 7 180 kb/s
Width                                    : 1 920 pixels
Height                                   : 804 pixels
Display aspect ratio                     : 2.40:1
Frame rate mode                          : Constant
Frame rate                               : 23.976 (24000/1001) FPS
Color space                              : YUV
Chroma subsampling                       : 4:2:0
Bit depth                                : 10 bits
Bits/(Pixel*Frame)                       : 0.194
Stream size                              : 7.02 GiB (84%)
Writing library                          : x265 2.8+19-bcdc610cf5f0:[Windows][GCC 7.3.0][64 bit] 10bit
Encoding settings                        : cpuid=1111039 / frame-threads=13 / numa-pools=12 / wpp / no-pmode / no-pme / no-psnr / no-ssim / log-level=3 / input-csp=1 / input-res=1920x804 / interlace=0 / total-frames=0 / level-idc=51 / high-tier=1 / uhd-bd=0 / ref=5 / allow-non-conformance / no-repeat-headers / annexb / no-aud / no-hrd / info / hash=0 / no-temporal-layers / open-gop / min-keyint=24 / keyint=240 / gop-lookahead=0 / bframes=8 / b-adapt=2 / b-pyramid / bframe-bias=0 / rc-lookahead=20 / lookahead-slices=5 / scenecut=40 / radl=0 / no-intra-refresh / ctu=64 / min-cu-size=8 / no-rect / no-amp / max-tu-size=32 / tu-inter-depth=1 / tu-intra-depth=1 / limit-tu=0 / rdoq-level=0 / dynamic-rd=0.00 / no-ssim-rd / signhide / no-tskip / nr-intra=0 / nr-inter=0 / no-constrained-intra / strong-intra-smoothing / max-merge=2 / limit-refs=3 / no-limit-modes / me=3 / subme=7 / merange=57 / temporal-mvp / weightp / no-weightb / no-analyze-src-pics / deblock=-3:-3 / sao / no-sao-non-deblock / rd=3 / no-early-skip / rskip / no-fast-intra / no-tskip-fast / no-cu-lossless / no-b-intra / no-splitrd-skip / rdpenalty=0 / psy-rd=2.00 / psy-rdoq=0.00 / no-rd-refine / no-lossless / cbqpoffs=0 / crqpoffs=0 / rc=crf / crf=18.0 / qcomp=0.60 / qpstep=4 / stats-write=0 / stats-read=0 / vbv-maxrate=160000 / vbv-bufsize=160000 / vbv-init=0.9 / crf-max=39.0 / crf-min=0.0 / ipratio=1.40 / pbratio=1.30 / aq-mode=1 / aq-strength=1.00 / cutree / zone-count=0 / no-strict-cbr / qg-size=32 / no-rc-grain / qpmax=69 / qpmin=0 / no-const-vbv / sar=1 / overscan=0 / videoformat=5 / range=0 / colorprim=1 / transfer=1 / colormatrix=1 / chromaloc=0 / display-window=0 / max-cll=0,0 / min-luma=0 / max-luma=1023 / log2-max-poc-lsb=8 / vui-timing-info / vui-hrd-info / slices=1 / no-opt-qp-pps / no-opt-ref-list-length-pps / no-multi-pass-opt-rps / scenecut-bias=0.05 / no-opt-cu-delta-qp / no-aq-motion / no-hdr / no-hdr-opt / no-dhdr10-opt / no-idr-recovery-sei / analysis-reuse-level=5 / scale-factor=0 / refine-intra=0 / refine-inter=0 / refine-mv=0 / no-limit-sao / ctu-info=0 / no-lowpass-dct / refine-mv-type=0 / copy-pic=1 / max-ausize-factor=1.0 / no-dynamic-refine / no-single-sei
Language                                 : English
Default                                  : Yes
Forced                                   : No
Color range                              : Limited
Color primaries                          : BT.709
Transfer characteristics                 : BT.709
Matrix coefficients                      : BT.709

Audio #1
ID                                       : 2
Format                                   : AC-3
Format/Info                              : Audio Coding 3
Codec ID                                 : A_AC3
Duration                                 : 2 h 20 min
Bit rate mode                            : Constant
Bit rate                                 : 640 kb/s
Channel(s)                               : 6 channels
Channel positions                        : Front: L C R, Side: L R, LFE
Sampling rate                            : 48.0 kHz
Frame rate                               : 31.250 FPS (1536 SPF)
Bit depth                                : 16 bits
Compression mode                         : Lossy
Stream size                              : 641 MiB (7%)
Title                                    : Dub [Blu-ray] 5.1 640 Kbps
Language                                 : Ukrainian
Service kind                             : Complete Main
Default                                  : No
Forced                                   : No

Audio #2
ID                                       : 3
Format                                   : AC-3
Format/Info                              : Audio Coding 3
Codec ID                                 : A_AC3
Duration                                 : 2 h 20 min
Bit rate mode                            : Constant
Bit rate                                 : 192 kb/s
Channel(s)                               : 2 channels
Channel positions                        : Front: L R
Sampling rate                            : 48.0 kHz
Frame rate                               : 31.250 FPS (1536 SPF)
Bit depth                                : 16 bits
Compression mode                         : Lossy
Delay relative to video                  : 14 ms
Stream size                              : 192 MiB (2%)
Title                                    : MVO [1+1] 2.0 192 Kbps [Hurtom-Gelios][+14ms]
Language                                 : Ukrainian
Service kind                             : Complete Main
Default                                  : No
Forced                                   : No

Audio #3
ID                                       : 4
Format                                   : AC-3
Format/Info                              : Audio Coding 3
Codec ID                                 : A_AC3
Duration                                 : 2 h 20 min
Bit rate mode                            : Constant
Bit rate                                 : 192 kb/s
Channel(s)                               : 2 channels
Channel positions                        : Front: L R
Sampling rate                            : 48.0 kHz
Frame rate                               : 31.250 FPS (1536 SPF)
Bit depth                                : 16 bits
Compression mode                         : Lossy
Delay relative to video                  : 21 ms
Stream size                              : 192 MiB (2%)
Title                                    : MVO [Novyj] 2.0 192 Kbps [Hurtom-Gelios][-11ms]
Language                                 : Ukrainian
Service kind                             : Complete Main
Default                                  : No
Forced                                   : No

Audio #4
ID                                       : 5
Format                                   : AC-3
Format/Info                              : Audio Coding 3
Codec ID                                 : A_AC3
Duration                                 : 2 h 20 min
Bit rate mode                            : Constant
Bit rate                                 : 384 kb/s
Channel(s)                               : 6 channels
Channel positions                        : Front: L C R, Side: L R, LFE
Sampling rate                            : 48.0 kHz
Frame rate                               : 31.250 FPS (1536 SPF)
Bit depth                                : 16 bits
Compression mode                         : Lossy
Stream size                              : 385 MiB (4%)
Title                                    : Original 5.1 384 Kbps
Language                                 : English
Service kind                             : Complete Main
Default                                  : No
Forced                                   : No

Text #1
ID                                       : 6
Format                                   : UTF-8
Codec ID                                 : S_TEXT/UTF8
Codec ID/Info                            : UTF-8 Plain Text
Duration                                 : 42 s 542 ms
Bit rate                                 : 89 b/s
Count of elements                        : 11
Stream size                              : 478 Bytes (0%)
Title                                    : Ukr Forced
Language                                 : Ukrainian
Default                                  : Yes
Forced                                   : Yes

Text #2
ID                                       : 7
Format                                   : UTF-8
Codec ID                                 : S_TEXT/UTF8
Codec ID/Info                            : UTF-8 Plain Text
Duration                                 : 2 h 12 min
Bit rate                                 : 28 b/s
Count of elements                        : 1040
Stream size                              : 27.8 KiB (0%)
Title                                    : Eng full
Language                                 : English
Default                                  : No
Forced                                   : No

Menu
00:00:00.000                             : en:00:00:00.000
00:10:26.250                             : en:00:10:26.250
00:15:06.322                             : en:00:15:06.322
00:24:27.215                             : en:00:24:27.215
00:39:49.303                             : en:00:39:49.303
00:49:52.406                             : en:00:49:52.406
00:54:55.000                             : en:00:54:55.000
01:04:37.623                             : en:01:04:37.623
01:09:47.057                             : en:01:09:47.057
01:20:24.569                             : en:01:20:24.569
01:30:43.479                             : en:01:30:43.479
01:41:44.097                             : en:01:41:44.097
01:46:57.661                             : en:01:46:57.661
01:50:24.576                             : en:01:50:24.576
01:58:59.674                             : en:01:58:59.674
02:03:57.179                             : en:02:03:57.179
Скріншоти




Джерело:
Особиста оцінка: 10 - без зайвих вагань рекомендую всім!
ЗАЛИШАЙТЕСЬ ЯКОМОГА ДОВШЕ НА РОЗДАЧІ!
ЗАВАНТАЖИВ САМ - ДАЙ ЗАВАНТАЖИТИ ІНШИМ


 Трекер:    Зареєстрований   

Завантажити / скачати фільм українською



відео для новачків



 Зареєстрований:   2018-09-01 01:28
 Розмір:   8.4 GB 
 Оцінка фільму:   9/10 (Голосів: 2)
   
Ваш часовий пояс: GMT + 2 Години

Нова тема   Відповісти