У полоні стихії / Adrift (2018) mini 1080p H.265 Ukr/Eng | Sub Eng

Нові коментарі

Нова тема   Відповісти
Автор Повідомлення
-Star-Lord- 
Поважний учасник


З нами з: 09.08.18
Востаннє: 19.10.18
Повідомлень: 209

2018-09-01 02:18  
У полоні стихії / Adrift (2018) mini 1080p H.265 Ukr/Eng | Sub Eng

У полоні стихії / Adrift (2018) mini 1080p H.265 Ukr/Eng | Sub Eng


Жанр: бойовик, драма, мелодрама, пригоди, трилер
Країна: США



Кінокомпанія: Huayi Brothers,Lakeshore Entertainment,RVK Studios
Режисер: Балтазар Кормакур
Актори: Шейлін Вудлі, Сем Клафлін, Джеффрі Томас, Елізабет Хоторн, Зак Бересфорд

Сюжет:
Сем Клафлін та Шейлін Вудлі у захоплюючій історії виживання від режисера Бальтасара Кормакура.
Їх несподівана зустріч на Таїті стала початком великого кохання. Молоді та вільні, вони вирушають у подорож Тихим океаном. Несподівано їх розкішна яхта потрапляє в один з найпотужніших ураганів в історії. Тепер не лише їх майбутнє, але і їх життя знаходиться у полоні стихії…


Тривалість: 01:36:47
Якість:
Відео:
кодек: H.265 (HEVC)
розмір кадру: 1920 х 804
бітрейт: 4 250 кб/с
бітова глибина: 10 біт
Увага! Перед завантаженням переконайтесь, що ваш пристрій відтворення (та/або ПЗ) підтримує H.265 (HEVC)

Аудіо # 1:
мова: українська
переклад: професійний дубльований
кодек: 5.1
бітрейт: 1 509 кб/с

Аудіо # 2:
мова: англійська
переклад: оригінал
кодек: 5.1
бітрейт: 448 кб/с

Субтитри:
мова: англійська
тип: програмні (м'які)
формат: *.srt
Info
Код:
General
Unique ID                                : 246073794040723089395611289509363349637 (0xB92016BEB0ACE56BA76B91F60C727885)
Complete name                            : F:\Video\Adrift (2018) 1080p H.265 [UKR_ENG].
Format                                   :
Format version                           : Version 4 / Version 2
File size                                : 4.20 GiB
Duration                                 : 1 h 36 min
Overall bit rate                         : 6 210 kb/s
Movie name                               : Adrift (2018)
Encoded date                             : UTC 2018-09-02 10:10:44
Writing application                      : v20.0.0 ('I Am The Sun') 32-bit
Writing library                          : libebml v1.3.5 + v1.4.8
Cover                                    : Yes
Attachments                              : cover

Video
ID                                       : 1
Format                                   : HEVC
Format/Info                              : High Efficiency Video Coding
Format profile                           : Main [email protected]@Main
Codec ID                                 : V_MPEGH/ISO/HEVC
Duration                                 : 1 h 36 min
Bit rate                                 : 4 250 kb/s
Width                                    : 1 920 pixels
Height                                   : 804 pixels
Display aspect ratio                     : 2.40:1
Frame rate mode                          : Constant
Frame rate                               : 23.976 (24000/1001) FPS
Color space                              : YUV
Chroma subsampling                       : 4:2:0
Bit depth                                : 10 bits
Bits/(Pixel*Frame)                       : 0.115
Stream size                              : 2.87 GiB (68%)
Writing library                          : x265 2.8+40-0106f9f2f867:[Windows][GCC 7.3.0][64 bit] 10bit
Encoding settings                        : cpuid=1111039 / frame-threads=3 / numa-pools=8 / wpp / no-pmode / no-pme / no-psnr / no-ssim / log-level=2 / input-csp=1 / input-res=1920x804 / interlace=0 / total-frames=139248 / level-idc=0 / high-tier=1 / uhd-bd=0 / ref=4 / no-allow-non-conformance / no-repeat-headers / annexb / no-aud / no-hrd / info / hash=0 / no-temporal-layers / open-gop / min-keyint=23 / keyint=250 / gop-lookahead=0 / bframes=4 / b-adapt=2 / b-pyramid / bframe-bias=0 / rc-lookahead=25 / lookahead-slices=4 / scenecut=40 / radl=0 / no-intra-refresh / ctu=64 / min-cu-size=8 / rect / no-amp / max-tu-size=32 / tu-inter-depth=1 / tu-intra-depth=1 / limit-tu=0 / rdoq-level=2 / dynamic-rd=0.00 / no-ssim-rd / signhide / no-tskip / nr-intra=0 / nr-inter=0 / no-constrained-intra / strong-intra-smoothing / max-merge=3 / limit-refs=3 / limit-modes / me=3 / subme=3 / merange=57 / temporal-mvp / weightp / no-weightb / no-analyze-src-pics / deblock=0:0 / sao / no-sao-non-deblock / rd=4 / no-early-skip / rskip / no-fast-intra / no-tskip-fast / no-cu-lossless / no-b-intra / no-splitrd-skip / rdpenalty=0 / psy-rd=2.00 / psy-rdoq=1.00 / no-rd-refine / no-lossless / cbqpoffs=0 / crqpoffs=0 / rc=abr / bitrate=4257 / qcomp=0.60 / qpstep=4 / stats-write=0 / stats-read=2 / cplxblur=20.0 / qblur=0.5 / ipratio=1.40 / pbratio=1.30 / aq-mode=3 / aq-strength=1.00 / cutree / zone-count=0 / no-strict-cbr / qg-size=32 / no-rc-grain / qpmax=69 / qpmin=0 / no-const-vbv / sar=0 / overscan=0 / videoformat=5 / range=0 / colorprim=2 / transfer=2 / colormatrix=2 / chromaloc=0 / display-window=0 / max-cll=0,0 / min-luma=0 / max-luma=1023 / log2-max-poc-lsb=8 / vui-timing-info / vui-hrd-info / slices=1 / no-opt-qp-pps / no-opt-ref-list-length-pps / multi-pass-opt-rps / scenecut-bias=0.05 / no-opt-cu-delta-qp / aq-motion / no-hdr / no-hdr-opt / no-dhdr10-opt / no-idr-recovery-sei / analysis-reuse-level=5 / scale-factor=0 / refine-intra=0 / refine-inter=0 / refine-mv=0 / no-limit-sao / ctu-info=0 / no-lowpass-dct / refine-mv-type=0 / copy-pic=1 / max-ausize-factor=1.0 / no-dynamic-refine / no-single-sei
Default                                  : Yes
Forced                                   : No

Audio #1
ID                                       : 2
Format                                   :
Format/Info                              : Digital Theater Systems
Codec ID                                 : A_DTS
Duration                                 : 1 h 36 min
Bit rate mode                            : Constant
Bit rate                                 : 1 509 kb/s
Channel(s)                               : 6 channels
Channel positions                        : Front: L C R, Side: L R, LFE
Sampling rate                            : 48.0 kHz
Frame rate                               : 93.750 FPS (512 SPF)
Bit depth                                : 24 bits
Compression mode                         : Lossy
Stream size                              : 1.02 GiB (24%)
Title                                    : 5.1 @ 1536 kbps
Language                                 : Ukrainian
Default                                  : Yes
Forced                                   : Yes

Audio #2
ID                                       : 3
Format                                   : AC-3
Format/Info                              : Audio Coding 3
Codec ID                                 : A_AC3
Duration                                 : 1 h 36 min
Bit rate mode                            : Constant
Bit rate                                 : 448 kb/s
Channel(s)                               : 6 channels
Channel positions                        : Front: L C R, Side: L R, LFE
Sampling rate                            : 48.0 kHz
Frame rate                               : 31.250 FPS (1536 SPF)
Bit depth                                : 16 bits
Compression mode                         : Lossy
Stream size                              : 310 MiB (7%)
Title                                    : 5.1 @ 448 kbps
Language                                 : English
Service kind                             : Complete Main
Default                                  : No
Forced                                   : No

Text
ID                                       : 4
Format                                   : UTF-8
Codec ID                                 : S_TEXT/UTF8
Codec ID/Info                            : UTF-8 Plain Text
Duration                                 : 1 h 24 min
Bit rate                                 : 35 b/s
Count of elements                        : 791
Stream size                              : 21.8 KiB (0%)
Title                                    : Full
Language                                 : English
Default                                  : No
Forced                                   : No

Menu
00:00:00.000                             : :Chapter 01
00:05:18.943                             : :Chapter 02
00:08:04.400                             : :Chapter 03
00:14:01.257                             : :Chapter 04
00:19:38.010                             : :Chapter 05
00:24:46.568                             : :Chapter 06
00:29:42.572                             : :Chapter 07
00:34:45.708                             : :Chapter 08
00:37:20.947                             : :Chapter 09
00:43:30.024                             : :Chapter 10
00:49:43.563                             : :Chapter 11
00:52:40.532                             : :Chapter 12
00:58:12.447                             : :Chapter 13
01:06:31.028                             : :Chapter 14
01:11:19.650                             : :Chapter 15
01:14:07.151                             : :Chapter 16
01:18:06.973                             : :Chapter 17
01:24:15.550                             : :Chapter 18
01:27:22.445                             : :Chapter 19
01:31:34.489                             : :Chapter 20
01:36:47.551                             : :Chapter 21
Скріншоти




Джерело:
Особиста оцінка: 0 - не дивився
ЗАЛИШАЙТЕСЬ ЯКОМОГА ДОВШЕ НА РОЗДАЧІ!
ЗАВАНТАЖИВ САМ - ДАЙ ЗАВАНТАЖИТИ ІНШИМ


 Трекер:    Зареєстрований   

Завантажити / скачати фільм українською



відео для новачків



 Зареєстрований:   2018-09-02 13:22
 Розмір:   4.2 GB 
 Оцінка фільму:   9.2/10 (Голосів: 5)
   
Інші релізи
   У полоні стихії / Adrift (2018) Remux 1080p Ukr/Eng | Sub Eng staf777  6 / 0   29.24 GB   2018-08-30 21:01 
   У полоні стихії / Adrift (2018) 1080p Ukr/Eng | Sub Eng staf777  27 / 2   10.24 GB   2018-08-30 20:08 
   У полоні стихії / Adrift (2018) igor911  96 / 0   1.46 GB   2018-08-30 10:05 
   У полоні стихії / Adrift (2018) 720p Ukr/Eng | Sub Eng 11FrYkT  36 / 2   6.28 GB   2018-08-30 07:18 
   У полоні стихії / Adrift (2018) AVC Ukr/Eng | Sub Eng 11FrYkT  47 / 0   2.13 GB   2018-08-30 07:16 
11FrYkT 
Модератор відео


З нами з: 20.02.11
Востаннє: 19.10.18
Повідомлень: 5080

2018-09-02 11:52  
-Star-Lord- написано:

Аудіо # 1:
мова: українська
переклад: професійний дубльований
кодек: 5.1
бітрейт: 448 кб/с

чому було не додати хоча б 640?

-Star-Lord- 
Поважний учасник


З нами з: 09.08.18
Востаннє: 19.10.18
Повідомлень: 209

2018-09-02 12:31  
11FrYkT
Все просто - не бачив, що є краща доріжка. Заміню!

11FrYkT 
Модератор відео


З нами з: 20.02.11
Востаннє: 19.10.18
Повідомлень: 5080

2018-09-02 12:40  
-Star-Lord- написано:
Все просто - не бачив, що є краща доріжка. Заміню!

як це коли ДТС і 640 я виклав першим

-Star-Lord- 
Поважний учасник


З нами з: 09.08.18
Востаннє: 19.10.18
Повідомлень: 209

2018-09-02 13:23  
Замінено укр. доріжку на кращу!

0mage0 
VIP


З нами з: 06.10.15
Востаннє: 19.10.18
Повідомлень: 368

2018-10-09 09:01  
Норм фільм, хоча, певно, на любителя. Оптимальний хронометраж, зробити коротше - вже буде не повнометражний фльм, довше - занадто розтягнуто.
Назву оригінальну замінили на свою, попри те, що оригінальна легко перекладається як Дрейф. Але ж коли не перекладається нормально, треба якось кострубато, але перекласти дослівно Happy
Хоча в цьому випадку, як на мене, вона не зовсім дрейфувала, вона ж зробила вітрило, проклала курс і керувала стерном...

-Star-Lord- написано:
захоплюючій

Виправте, будь ласка, в описі на захопливій.

Ваш часовий пояс: GMT + 2 Години

Нова тема   Відповісти