Снупі та Чарлі Браун: Дрібнота у кіно / The Peanuts Movie (2015) 1080p H.265 Ukr/Eng | Sub Ukr/Eng

Нові коментарі

Нова тема   Відповісти
Автор Повідомлення
-Star-Lord- 
VIP


З нами з: 09.08.18
Востаннє: 16.11.18
Повідомлень: 258

2018-09-01 00:32  
Снупі та Чарлі Браун: Дрібнота у кіно / The Peanuts Movie (2015) 1080p H.265 Ukr/Eng | Sub Ukr/Eng

Снупі та Чарлі Браун: Дрібнота у кіно / The Peanuts Movie (2015) 1080p H.265 Ukr/Eng | Sub Ukr/Eng


Жанр: Комедія, Мультфільм, Сімейний, Пригодницький
Країна: США



Кінокомпанія: 20th Century Fox Animation, Blue Sky Studios, Feigco Entertainment
Режисер: Стів Мартіно
Актори: Тромбон Шорти, Ребекка Блум, Анастасія Бредихина, Франческа Капальді, Крістін Ченоует, Олександр Гарфін, Ной Джонстон, Білл Мелендес, Хедлі Белль Міллер

Сюжет:
Чарлі Браун, Снупі, Люсі, Лінус і інші улюблені персонажі коміксів «Дрібна торгівля» вперше з'являться на великому екрані в повнометражному анімаційному фільмі, знятому з використанням останніх досягнень 3D-анімації. Снупі - найсимпатичніший пес у світі - до того ж, класний пілот - відправляється в неймовірні повітряні пригоди в гонитві за головним лиходієм Червоним Бароном. У цей час у його приятеля Чарлі Брауна починаються воістину епічні пригоди!


Тривалість: 01:28:06
Якість:
Відео:
кодек: H.265 (HEVC)
розмір кадру: 1920 х 1036
бітрейт: 3 350 кб/с
бітова глибина: 10 біт
Увага! Перед завантаженням переконайтесь, що ваш пристрій відтворення (та/або ПЗ) підтримує H.265 (HEVC)

Аудіо # 1:
мова: українська
переклад: професійний дубльований
кодек: 5.1
бітрейт: 448 кб/с

Аудіо # 2:
мова: англійська
переклад: оригінал
кодек: 5.1
бітрейт: 448 кб/с

Субтитри # 1-2:
мова: українська (Forced, Full)
тип: програмні (м'які)
формат: *.srt

Субтитри # 3-4:
мова: англійська (Full, SDH)
тип: програмні (м'які)
формат: *.srt
Info
Код:
General
Unique ID                                : 131831786078836575655425810586879160898 (0x632DE0E1A61BBEBA27113C004AC47242)
Complete name                            : F:\Video\The Peanuts Movie (2015) 1080p H.265 [UKR_ENG].
Format                                   :
Format version                           : Version 4 / Version 2
File size                                : 2.61 GiB
Duration                                 : 1 h 28 min
Overall bit rate                         : 4 248 kb/s
Movie name                               : The Peanuts Movie (2015)
Encoded date                             : UTC 2018-08-25 14:07:07
Writing application                      : v20.0.0 ('I Am The Sun') 32-bit
Writing library                          : libebml v1.3.5 + v1.4.8
Cover                                    : Yes
Attachments                              : Cover.jpg

Video
ID                                       : 1
Format                                   : HEVC
Format/Info                              : High Efficiency Video Coding
Format profile                           : Main [email protected]@Main
Codec ID                                 : V_MPEGH/ISO/HEVC
Duration                                 : 1 h 28 min
Bit rate                                 : 3 350 kb/s
Width                                    : 1 920 pixels
Height                                   : 1 036 pixels
Display aspect ratio                     : 1.85:1
Frame rate mode                          : Constant
Frame rate                               : 23.976 (24000/1001) FPS
Color space                              : YUV
Chroma subsampling                       : 4:2:0
Bit depth                                : 10 bits
Bits/(Pixel*Frame)                       : 0.070
Stream size                              : 2.06 GiB (79%)
Writing library                          : x265 2.7+342-930e3cc385df:[Windows][MSVC 1914][64 bit] 10bit
Encoding settings                        : cpuid=1049583 / frame-threads=3 / numa-pools=12 / wpp / no-pmode / no-pme / no-psnr / no-ssim / log-level=2 / input-csp=1 / input-res=1920x1036 / interlace=0 / total-frames=126741 / level-idc=0 / high-tier=1 / uhd-bd=0 / ref=6 / no-allow-non-conformance / no-repeat-headers / annexb / no-aud / no-hrd / info / hash=0 / no-temporal-layers / open-gop / min-keyint=24 / keyint=240 / gop-lookahead=0 / bframes=10 / b-adapt=2 / b-pyramid / bframe-bias=0 / rc-lookahead=40 / lookahead-slices=0 / scenecut=40 / radl=0 / no-intra-refresh / ctu=64 / min-cu-size=8 / no-rect / no-amp / max-tu-size=32 / tu-inter-depth=3 / tu-intra-depth=3 / limit-tu=4 / rdoq-level=2 / dynamic-rd=0.00 / no-ssim-rd / signhide / no-tskip / nr-intra=0 / nr-inter=0 / no-constrained-intra / no-strong-intra-smoothing / max-merge=4 / limit-refs=1 / limit-modes / me=3 / subme=7 / merange=57 / temporal-mvp / weightp / no-weightb / no-analyze-src-pics / deblock=-3:-3 / no-sao / no-sao-non-deblock / rd=6 / no-early-skip / rskip / no-fast-intra / no-tskip-fast / no-cu-lossless / no-b-intra / no-splitrd-skip / rdpenalty=0 / psy-rd=2.00 / psy-rdoq=1.28 / no-rd-refine / no-lossless / cbqpoffs=0 / crqpoffs=0 / rc=crf / crf=17.5 / qcomp=0.60 / qpstep=4 / stats-write=0 / stats-read=0 / ipratio=1.40 / pbratio=1.30 / aq-mode=2 / aq-strength=1.00 / cutree / zone-count=0 / no-strict-cbr / qg-size=64 / no-rc-grain / qpmax=69 / qpmin=10 / no-const-vbv / sar=0 / overscan=0 / videoformat=5 / range=0 / colorprim=2 / transfer=2 / colormatrix=2 / chromaloc=0 / display-window=0 / max-cll=0,0 / min-luma=0 / max-luma=1023 / log2-max-poc-lsb=8 / vui-timing-info / vui-hrd-info / slices=1 / no-opt-qp-pps / no-opt-ref-list-length-pps / no-multi-pass-opt-rps / scenecut-bias=0.05 / no-opt-cu-delta-qp / no-aq-motion / no-hdr / no-hdr-opt / no-dhdr10-opt / no-idr-recovery-sei / analysis-reuse-level=5 / scale-factor=0 / refine-intra=0 / refine-inter=0 / refine-mv=0 / no-limit-sao / ctu-info=0 / no-lowpass-dct / refine-mv-type=0 / copy-pic=1 / max-ausize-factor=1.0 / no-dynamic-refine / no-single-sei
Language                                 : English
Default                                  : Yes
Forced                                   : No

Audio #1
ID                                       : 2
Format                                   : AC-3
Format/Info                              : Audio Coding 3
Codec ID                                 : A_AC3
Duration                                 : 1 h 28 min
Bit rate mode                            : Constant
Bit rate                                 : 448 kb/s
Channel(s)                               : 6 channels
Channel positions                        : Front: L C R, Side: L R, LFE
Sampling rate                            : 48.0 kHz
Frame rate                               : 31.250 FPS (1536 SPF)
Bit depth                                : 16 bits
Compression mode                         : Lossy
Stream size                              : 282 MiB (11%)
Title                                    : 5.1 @ 448 kbps
Language                                 : Ukrainian
Service kind                             : Complete Main
Default                                  : Yes
Forced                                   : Yes

Audio #2
ID                                       : 3
Format                                   : AC-3
Format/Info                              : Audio Coding 3
Codec ID                                 : A_AC3
Duration                                 : 1 h 28 min
Bit rate mode                            : Constant
Bit rate                                 : 448 kb/s
Channel(s)                               : 6 channels
Channel positions                        : Front: L C R, Side: L R, LFE
Sampling rate                            : 48.0 kHz
Frame rate                               : 31.250 FPS (1536 SPF)
Bit depth                                : 16 bits
Compression mode                         : Lossy
Stream size                              : 282 MiB (11%)
Title                                    : 5.1 @ 448 kbps
Language                                 : English
Service kind                             : Complete Main
Default                                  : No
Forced                                   : No

Text #1
ID                                       : 4
Format                                   : UTF-8
Codec ID                                 : S_TEXT/UTF8
Codec ID/Info                            : UTF-8 Plain Text
Duration                                 : 1 h 26 min
Bit rate                                 : 0 b/s
Count of elements                        : 4
Stream size                              : 198 Bytes (0%)
Title                                    : Forced
Language                                 : Ukrainian
Default                                  : Yes
Forced                                   : Yes

Text #2
ID                                       : 5
Format                                   : UTF-8
Codec ID                                 : S_TEXT/UTF8
Codec ID/Info                            : UTF-8 Plain Text
Duration                                 : 1 h 26 min
Bit rate                                 : 72 b/s
Count of elements                        : 827
Stream size                              : 46.1 KiB (0%)
Title                                    : Full
Language                                 : Ukrainian
Default                                  : No
Forced                                   : No

Text #3
ID                                       : 6
Format                                   : UTF-8
Codec ID                                 : S_TEXT/UTF8
Codec ID/Info                            : UTF-8 Plain Text
Duration                                 : 1 h 22 min
Bit rate                                 : 52 b/s
Count of elements                        : 1105
Stream size                              : 31.7 KiB (0%)
Title                                    : Full
Language                                 : English
Default                                  : No
Forced                                   : No

Text #4
ID                                       : 7
Format                                   : UTF-8
Codec ID                                 : S_TEXT/UTF8
Codec ID/Info                            : UTF-8 Plain Text
Duration                                 : 1 h 27 min
Bit rate                                 : 59 b/s
Count of elements                        : 1387
Stream size                              : 37.9 KiB (0%)
Title                                    : SDH
Language                                 : English
Default                                  : No
Forced                                   : No

Menu
00:00:00.000                             : en:Chapter 1
00:05:19.110                             : en:Chapter 2
00:07:58.228                             : en:Chapter 3
00:11:02.912                             : en:Chapter 4
00:13:35.106                             : en:Chapter 5
00:17:49.193                             : en:Chapter 6
00:20:56.046                             : en:Chapter 7
00:23:27.948                             : en:Chapter 8
00:25:35.617                             : en:Chapter 9
00:28:08.228                             : en:Chapter 10
00:32:36.538                             : en:Chapter 11
00:36:23.181                             : en:Chapter 12
00:41:14.138                             : en:Chapter 13
00:44:19.866                             : en:Chapter 14
00:47:57.333                             : en:Chapter 15
00:51:47.438                             : en:Chapter 16
00:55:29.535                             : en:Chapter 17
01:00:15.195                             : en:Chapter 18
01:03:27.095                             : en:Chapter 19
01:04:53.431                             : en:Chapter 20
01:08:59.886                             : en:Chapter 21
01:12:24.549                             : en:Chapter 22
01:16:15.488                             : en:Chapter 23
01:17:21.011                             : en:Chapter 24
Скріншоти




Джерело:
Особиста оцінка: 0 - не дивився
ЗАЛИШАЙТЕСЬ ЯКОМОГА ДОВШЕ НА РОЗДАЧІ!
ЗАВАНТАЖИВ САМ - ДАЙ ЗАВАНТАЖИТИ ІНШИМ


 Трекер:    Зареєстрований   

Завантажити / скачати мультфільм українською



відео для новачків



 Зареєстрований:   2018-09-01 00:32
 Розмір:   2.61 GB 
 Оцінка мультфільму:   10/10 (Голосів: 1)
   
Ваш часовий пояс: GMT + 2 Години

Нова тема   Відповісти