Капітан Підштанько / Captain Underpants: The First Epic Movie (2017) 1080p H.265 Ukr/Eng | Sub Ukr/Eng

Нові коментарі

Нова тема   Відповісти
Автор Повідомлення
-Star-Lord- 
VIP


З нами з: 09.08.18
Востаннє: 16.11.18
Повідомлень: 258

2018-09-01 00:15  
Капітан Підштанько / Captain Underpants: The First Epic Movie (2017) 1080p H.265 Ukr/Eng | Sub Ukr/Eng

Капітан Підштанько / Captain Underpants: The First Epic Movie (2017) 1080p H.265 Ukr/Eng | Sub Ukr/Eng


Жанр: комедія, бойовик, сімейний
Країна: США



Кінокомпанія: DreamWorks Animation, Scholastic Productions
Режисер: Девід Сорен
Актори: Ед Хелмс, Джордан Піл, Томас Міддлдітч, Кевін Харт, Нік Кролл, Крістен Шааль, Леслі Нікол

Сюжет:
Двоє учнів початкової школи загіпнотизували директора школи так, що він став супергероєм, що допомагає їх однокласникам.


Тривалість: 01:28:40
Якість:
Відео:
кодек: H.265 (HEVC)
розмір кадру: 1920 х 1036
бітрейт: 5 162 кб/с
бітова глибина: 10 біт
Увага! Перед завантаженням переконайтесь, що ваш пристрій відтворення (та/або ПЗ) підтримує H.265 (HEVC)

Аудіо # 1:
мова: українська
переклад: професійний дубльований
кодек: 5.1
бітрейт: 448 кб/с

Аудіо # 2:
мова: англійська
переклад: оригінал
кодек: 5.1
бітрейт: 448 кб/с

Субтитри # 1:
мова: українська
тип: програмні (м'які)
формат: *.srt

Субтитри # 2-3:
мова: англійська
тип: програмні (м'які)
формат: *.srt
Info
Код:
General
Unique ID                                : 294815107690167943383218150298602026643 (0xDDCB530B9ACFF076D749BE7D04CDB693)
Complete name                            : F:\Video\Captain Underpants. The First Epic Movie (2017) 1080p H.265 [UKR_ENG].
Format                                   :
Format version                           : Version 4 / Version 2
File size                                : 3.75 GiB
Duration                                 : 1 h 28 min
Overall bit rate                         : 6 061 kb/s
Movie name                               : Captain Underpants: The First Epic Movie (2017)
Encoded date                             : UTC 2018-08-23 15:15:33
Writing application                      : v20.0.0 ('I Am The Sun') 32-bit
Writing library                          : libebml v1.3.5 + v1.4.8
Cover                                    : Yes
Attachments                              : cover

Video
ID                                       : 1
Format                                   : HEVC
Format/Info                              : High Efficiency Video Coding
Format profile                           : Main [email protected]@Main
Codec ID                                 : V_MPEGH/ISO/HEVC
Duration                                 : 1 h 28 min
Bit rate                                 : 5 162 kb/s
Width                                    : 1 920 pixels
Height                                   : 1 036 pixels
Display aspect ratio                     : 1.85:1
Frame rate mode                          : Constant
Frame rate                               : 23.976 (24000/1001) FPS
Color space                              : YUV
Chroma subsampling                       : 4:2:0
Bit depth                                : 10 bits
Bits/(Pixel*Frame)                       : 0.108
Stream size                              : 3.20 GiB (85%)
Writing library                          : x265 2.7+25-e1ed4d609b52:[Windows][MSVC 1914][64 bit] 10bit
Encoding settings                        : cpuid=1050111 / frame-threads=3 / numa-pools=12 / wpp / no-pmode / no-pme / no-psnr / no-ssim / log-level=2 / input-csp=1 / input-res=1920x1036 / interlace=0 / total-frames=127560 / level-idc=0 / high-tier=1 / uhd-bd=0 / ref=6 / no-allow-non-conformance / no-repeat-headers / annexb / no-aud / no-hrd / info / hash=0 / no-temporal-layers / open-gop / min-keyint=24 / keyint=240 / gop-lookahead=0 / bframes=7 / b-adapt=2 / b-pyramid / bframe-bias=0 / rc-lookahead=40 / lookahead-slices=0 / scenecut=40 / radl=0 / no-intra-refresh / ctu=64 / min-cu-size=8 / no-rect / no-amp / max-tu-size=32 / tu-inter-depth=3 / tu-intra-depth=3 / limit-tu=0 / rdoq-level=1 / dynamic-rd=0.00 / no-ssim-rd / signhide / no-tskip / nr-intra=0 / nr-inter=0 / no-constrained-intra / no-strong-intra-smoothing / max-merge=4 / limit-refs=1 / limit-modes / me=3 / subme=7 / merange=57 / temporal-mvp / weightp / no-weightb / no-analyze-src-pics / deblock=-3:-3 / no-sao / no-sao-non-deblock / rd=6 / no-early-skip / rskip / no-fast-intra / no-tskip-fast / no-cu-lossless / no-b-intra / no-splitrd-skip / rdpenalty=0 / psy-rd=2.00 / psy-rdoq=1.00 / no-rd-refine / no-lossless / cbqpoffs=0 / crqpoffs=0 / rc=crf / crf=18.5 / qcomp=0.60 / qpstep=4 / stats-write=0 / stats-read=0 / ipratio=1.40 / pbratio=1.30 / aq-mode=1 / aq-strength=1.00 / cutree / zone-count=0 / no-strict-cbr / qg-size=64 / no-rc-grain / qpmax=69 / qpmin=10 / no-const-vbv / sar=0 / overscan=0 / videoformat=5 / range=0 / colorprim=2 / transfer=2 / colormatrix=2 / chromaloc=0 / display-window=0 / max-cll=0,0 / min-luma=0 / max-luma=1023 / log2-max-poc-lsb=8 / vui-timing-info / vui-hrd-info / slices=1 / no-opt-qp-pps / no-opt-ref-list-length-pps / no-multi-pass-opt-rps / scenecut-bias=0.05 / no-opt-cu-delta-qp / no-aq-motion / no-hdr / no-hdr-opt / no-dhdr10-opt / no-idr-recovery-sei / analysis-reuse-level=5 / scale-factor=0 / refine-intra=0 / refine-inter=0 / refine-mv=0 / no-limit-sao / ctu-info=0 / no-lowpass-dct / refine-mv-type=0 / copy-pic=1 / max-ausize-factor=1.0 / no-dynamic-refine / no-single-sei
Default                                  : Yes
Forced                                   : No

Audio #1
ID                                       : 2
Format                                   : AC-3
Format/Info                              : Audio Coding 3
Codec ID                                 : A_AC3
Duration                                 : 1 h 28 min
Bit rate mode                            : Constant
Bit rate                                 : 448 kb/s
Channel(s)                               : 6 channels
Channel positions                        : Front: L C R, Side: L R, LFE
Sampling rate                            : 48.0 kHz
Frame rate                               : 31.250 FPS (1536 SPF)
Bit depth                                : 16 bits
Compression mode                         : Lossy
Stream size                              : 284 MiB (7%)
Title                                    : 5.1 @ 448 kbps
Language                                 : Ukrainian
Service kind                             : Complete Main
Default                                  : Yes
Forced                                   : Yes

Audio #2
ID                                       : 3
Format                                   : AC-3
Format/Info                              : Audio Coding 3
Codec ID                                 : A_AC3
Duration                                 : 1 h 28 min
Bit rate mode                            : Constant
Bit rate                                 : 448 kb/s
Channel(s)                               : 6 channels
Channel positions                        : Front: L C R, Side: L R, LFE
Sampling rate                            : 48.0 kHz
Frame rate                               : 31.250 FPS (1536 SPF)
Bit depth                                : 16 bits
Compression mode                         : Lossy
Stream size                              : 284 MiB (7%)
Title                                    : 5.1 @ 448 kbps
Language                                 : English
Service kind                             : Complete Main
Default                                  : No
Forced                                   : No

Text #1
ID                                       : 4
Format                                   : UTF-8
Codec ID                                 : S_TEXT/UTF8
Codec ID/Info                            : UTF-8 Plain Text
Duration                                 : 1 h 27 min
Bit rate                                 : 92 b/s
Count of elements                        : 1477
Stream size                              : 59.3 KiB (0%)
Title                                    : Full
Language                                 : Ukrainian
Default                                  : No
Forced                                   : No

Text #2
ID                                       : 5
Format                                   : UTF-8
Codec ID                                 : S_TEXT/UTF8
Codec ID/Info                            : UTF-8 Plain Text
Duration                                 : 1 h 27 min
Bit rate                                 : 77 b/s
Count of elements                        : 1855
Stream size                              : 49.9 KiB (0%)
Title                                    : Full
Language                                 : English
Default                                  : No
Forced                                   : No

Text #3
ID                                       : 6
Format                                   : UTF-8
Codec ID                                 : S_TEXT/UTF8
Codec ID/Info                            : UTF-8 Plain Text
Duration                                 : 1 h 27 min
Bit rate                                 : 87 b/s
Count of elements                        : 2122
Stream size                              : 55.9 KiB (0%)
Title                                    : SDH
Language                                 : English
Default                                  : No
Forced                                   : No

Menu
00:00:00.000                             : en:Chapter 1
00:03:54.359                             : en:Chapter 2
00:06:58.918                             : en:Chapter 3
00:10:08.441                             : en:Chapter 4
00:12:58.652                             : en:Chapter 5
00:15:08.657                             : en:Chapter 6
00:17:44.980                             : en:Chapter 7
00:20:42.783                             : en:Chapter 8
00:23:45.257                             : en:Chapter 9
00:25:44.668                             : en:Chapter 10
00:29:26.264                             : en:Chapter 11
00:33:55.658                             : en:Chapter 12
00:38:24.176                             : en:Chapter 13
00:42:10.194                             : en:Chapter 14
00:46:12.060                             : en:Chapter 15
00:52:17.801                             : en:Chapter 16
00:55:02.841                             : en:Chapter 17
00:57:37.620                             : en:Chapter 18
01:00:57.445                             : en:Chapter 19
01:04:30.116                             : en:Chapter 20
01:08:24.934                             : en:Chapter 21
01:11:42.089                             : en:Chapter 22
01:15:44.373                             : en:Chapter 23
01:19:03.321                             : en:Chapter 24
Скріншоти




Джерело:
Особиста оцінка: 0 - не дивився
ЗАЛИШАЙТЕСЬ ЯКОМОГА ДОВШЕ НА РОЗДАЧІ!
ЗАВАНТАЖИВ САМ - ДАЙ ЗАВАНТАЖИТИ ІНШИМ


 Трекер:    Зареєстрований   

Завантажити / скачати мультфільм українською



відео для новачків



 Зареєстрований:   2018-09-01 00:15
 Розмір:   3.75 GB 
 Оцінка мультфільму:   8/10 (Голосів: 3)
   
Ваш часовий пояс: GMT + 2 Години

Нова тема   Відповісти