Захоплення в північному морі / North Sea Hijack (1979) AVC Ukr/Eng | Sub Eng

Нові коментарі

Нова тема   Відповісти
Останній раз роздавалося staf777 (2019-12-11)
Автор Повідомлення
staf777 
Відео Гуртом - підтримка та поширення
Відео Гуртом - підтримка та поширення


З нами з: 16.11.16
Востаннє: 11.12.19
Повідомлень: 3042

2018-08-31 21:12  
Захоплення в північному морі / North Sea Hijack (1979) AVC Ukr/Eng | Sub Eng

Захоплення в північному морі / North Sea Hijack (1979) AVC Ukr/Eng | Sub Eng


Жанр: екшн, пригодницький, трилер
Країна: Велика Британія



Кінокомпанія: Cinema Seven Productions Ltd., Universal Pictures
Режисер: Ендрю МакЛаґлен
Актори: Роджер Мур, Джеймс Мейсон, Ентоні Перкінс, Майкл Паркс, Девід Гедісон, Джек Ватсон, Джордж Бейкер

Сюжет:
Безжалісний терорист Креймр захопив контроль над гігантською буровою установкою і тримає у заручниках сімсот працівників...


Тривалість: 01:39:33
Якість: AVC
Відео:
кодек:
розмір кадру: 1024x560
бітрейт: 3400 кб/с

Аудіо # 1:
мова: українська
переклад: багатоголосий закадровий
кодек: 2.0
бітрейт: 192 кб/с

Аудіо # 2:
мова: англійська
переклад: оригінал
кодек: 2.0
бітрейт: 192 кб/с

Субтитри:
мова: англійська
тип: програмні (м'які)
формат: *.srt
Info
General
Unique ID : 124930965339287169805439485555026594940 (0x5DFCD42685E0A14A979FC17BF35A8C7C)
Complete name : H:\» Українське озвучення » Фільми\Пригодницький\North Sea Hijack (1979) AVC [UKR_ENG] [Hurtom] .
Format :
Format version : Version 4 / Version 2
File size : 2.63 GiB
Duration : 1 h 39 min
Overall bit rate : 3 786 kb/s
Movie name : North Sea Hijack (1979) AVC [UKR_ENG] [Hurtom]
Encoded date : UTC 2018-08-31 19:13:18
Writing application : v24.0.0 ('Beyond The Pale') 64-bit
Writing library : libebml v1.3.6 + v1.4.9
Cover : Yes
Attachments : cover.jpg

Video
ID : 1
Format : AVC
Format/Info : Advanced Video Codec
Format profile : [email protected]
Format settings : CABAC / 11 Ref Frames
Format settings, CABAC : Yes
Format settings, ReFrames : 11 frames
Codec ID : V_MPEG4/ISO/AVC
Duration : 1 h 39 min
Bit rate : 3 400 kb/s
Width : 1 024 pixels
Height : 560 pixels
Display aspect ratio : 1.85:1
Frame rate mode : Constant
Frame rate : 23.976 (24000/1001) FPS
Color space : YUV
Chroma subsampling : 4:2:0
Bit depth : 8 bits
Scan type : Progressive
Bits/(Pixel*Frame) : 0.247
Stream size : 2.36 GiB (90%)
Writing library : core 148 r2708 86b7198
Encoding settings : cabac=1 / ref=11 / deblock=1:-3:-3 / analyse=0x3:0x113 / me=umh / subme=11 / psy=1 / psy_rd=1.00:0.00 / mixed_ref=1 / me_range=32 / chroma_me=1 / trellis=2 / 8x8dct=1 / cqm=0 / deadzone=21,11 / fast_pskip=1 / chroma_qp_offset=-2 / threads=12 / lookahead_threads=1 / sliced_threads=0 / nr=0 / decimate=0 / interlaced=0 / bluray_compat=0 / constrained_intra=0 / bframes=13 / b_pyramid=2 / b_adapt=1 / b_bias=0 / direct=1 / weightb=1 / open_gop=0 / weightp=2 / keyint=240 / keyint_min=24 / scenecut=40 / intra_refresh=0 / rc_lookahead=40 / rc=2pass / mbtree=1 / bitrate=3400 / ratetol=1.0 / qcomp=0.60 / qpmin=0 / qpmax=69 / qpstep=4 / cplxblur=20.0 / qblur=0.5 / vbv_maxrate=62500 / vbv_bufsize=78125 / nal_hrd=none / filler=0 / ip_ratio=1.40 / aq=1:1.00
Default : Yes
Forced : No
Color range : Limited
Color primaries : BT.709
Transfer characteristics : BT.709
Matrix coefficients : BT.709

Audio #1
ID : 2
Format : AC-3
Format/Info : Audio Coding 3
Codec ID : A_AC3
Duration : 1 h 39 min
Bit rate mode : Constant
Bit rate : 192 kb/s
Channel(s) : 2 channels
Channel positions : Front: L R
Sampling rate : 48.0 kHz
Frame rate : 31.250 FPS (1536 SPF)
Bit depth : 16 bits
Compression mode : Lossy
Stream size : 137 MiB (5%)
Title : НЛО-TV
Language : Ukrainian
Service kind : Complete Main
Default : Yes
Forced : Yes

Audio #2
ID : 3
Format : AC-3
Format/Info : Audio Coding 3
Codec ID : A_AC3
Duration : 1 h 39 min
Bit rate mode : Constant
Bit rate : 192 kb/s
Channel(s) : 2 channels
Channel positions : Front: L R
Sampling rate : 48.0 kHz
Frame rate : 31.250 FPS (1536 SPF)
Bit depth : 16 bits
Compression mode : Lossy
Delay relative to video : -5 ms
Stream size : 137 MiB (5%)
Language : English
Service kind : Complete Main
Default : No
Forced : No

Text
ID : 4
Format : UTF-8
Codec ID : S_TEXT/UTF8
Codec ID/Info : UTF-8 Plain Text
Duration : 1 h 37 min
Bit rate : 53 b/s
Count of elements : 877
Stream size : 38.1 KiB (0%)
Language : English
Default : No
Forced : No

Menu
00:00:00.000 : :Chapter 1
00:10:52.485 : :Chapter 2
00:24:04.234 : :Chapter 3
00:37:05.807 : :Chapter 4
00:48:51.595 : :Chapter 5
01:01:17.048 : :Chapter 6
01:11:31.871 : :Chapter 7
01:22:07.881 : :Chapter 8
Скріншоти



Джерело: &
За доріжку дякую Sando7, voin747, Silverok, patriot2305
Особиста оцінка: не дивився


Срібний реліз (на рейтинг впливає 50% завантаженого)
 Трекер:    Зареєстрований   

Завантажити / скачати фільм українською



відео для новачків



 Зареєстрований:   2018-09-02 07:26
 Розмір:   2.63 GB 
 Оцінка фільму:   9.8/10 (Голосів: 6)
   
bot 
робот


З нами з: 30.09.07
Востаннє: 26.05.05
Повідомлень: 22609

2018-09-02 07:25  
Тему перенесено з Анонси релізів до форуму Фільми


staf777

11FrYkT 
Модератор відео


З нами з: 20.02.11
Востаннє: 11.12.19
Повідомлень: 6387

2018-09-02 09:57  
staf777 , додайте МІ або заберіть спойлер
staf777 
Відео Гуртом - підтримка та поширення
Відео Гуртом - підтримка та поширення


З нами з: 16.11.16
Востаннє: 11.12.19
Повідомлень: 3042

2018-09-02 10:22  
11FrYkT
Вибачаюсь провтикав - додав МІ

Ваш часовий пояс: GMT + 2 Години

Нова тема   Відповісти