Кришталева фея і чарівний кактус, і 2012 / Crystal Fairy & the Magical Cactus and 2012 (2013) 720p Ukr/Eng | Sub Eng

Нові коментарі

Нова тема   Відповісти
Останній раз роздавалося staf777 (2018-10-22)
Автор Повідомлення
staf777 
Попереджень: 1
Попереджень: 1 


З нами з: 16.11.16
Востаннє: 21.10.18
Повідомлень: 1648

2018-08-31 21:22  
Кришталева фея і чарівний кактус, і 2012 / Crystal Fairy & the Magical Cactus and 2012 (2013) 720p Ukr/Eng | Sub Eng



Жанр: комедія, пригодницький
Країна: Чилі



Кінокомпанія: Diroriro, Fabula
Режисер: Себастьян Сільва
Актори: Майкл Сера, Габі Хоффманн, Хуан Андрес Сільва, Аугусто Сілва, Хосе Мігель Сільва, Грасия Аріста, Мануела Бальдовіно, Гарі Бойд ...

Сюжет:
У Джеймі дивовижна здатність створювати хаос всюди, де він з'являється. Разом з друзями він вирушає в подорож по дорогах Чилі в надії знайти і випробувати легендарний кактус Сан-Педро, який місцеві шамани здавна використовували як сильний галюциноген. По дорозі він знайомиться з ексцентричною дівчиною - Кристал Фейрі, - яка стає їх провідником по тутешніх пустелях.


Тривалість: 01:38:39
Якість: 720p
Відео:
кодек:
розмір кадру: 1280x536
бітрейт: 4829 кб/с

Аудіо # 1:
мова: українська
переклад: багатоголосий закадровий
кодек: 2.0
бітрейт: 192 кб/с

Аудіо # 2:
мова: англійська
переклад: оригінал
кодек: 5.1
бітрейт: 448 кб/с

Субтитри:
мова: англійська
тип: програмні (м'які)
формат: *.srt
Info
General
Unique ID : 284447279217606286259236756886161292043 (0xD5FE8DA2BD75AA9F3B29A098C8B17B0B)
Complete name : F:\» HD українською » Фільми в HD\Комедія\Crystal Fairy & the Magical Cactus and 2012 (2013) 720p [UKR_ENG] [Hurtom].
Format :
Format version : Version 4 / Version 2
File size : 3.77 GiB
Duration : 1 h 38 min
Overall bit rate : 5 471 kb/s
Movie name : Crystal Fairy & the Magical Cactus and 2012 (2013) 720p [UKR_ENG] [Hurtom]
Encoded date : UTC 2018-08-31 17:32:02
Writing application : v24.0.0 ('Beyond The Pale') 64-bit
Writing library : libebml v1.3.6 + v1.4.9
Cover : Yes
Attachments : cover.jpg.jpg

Video
ID : 1
Format : AVC
Format/Info : Advanced Video Codec
Format profile : [email protected]
Format settings : CABAC / 5 Ref Frames
Format settings, CABAC : Yes
Format settings, ReFrames : 5 frames
Codec ID : V_MPEG4/ISO/AVC
Duration : 1 h 38 min
Bit rate : 4 829 kb/s
Width : 1 280 pixels
Height : 536 pixels
Display aspect ratio : 2.40:1
Frame rate mode : Constant
Frame rate : 23.976 FPS
Color space : YUV
Chroma subsampling : 4:2:0
Bit depth : 8 bits
Scan type : Progressive
Bits/(Pixel*Frame) : 0.294
Stream size : 3.33 GiB (88%)
Title :
Writing library : core 140 r2377 1ca7bb9
Encoding settings : cabac=1 / ref=5 / deblock=1:0:0 / analyse=0x3:0x133 / me=umh / subme=7 / psy=1 / psy_rd=1.00:0.00 / mixed_ref=1 / me_range=16 / chroma_me=1 / trellis=1 / 8x8dct=1 / cqm=0 / deadzone=21,11 / fast_pskip=0 / chroma_qp_offset=-2 / threads=18 / lookahead_threads=3 / sliced_threads=0 / nr=0 / decimate=1 / interlaced=0 / bluray_compat=0 / constrained_intra=0 / bframes=3 / b_pyramid=2 / b_adapt=1 / b_bias=0 / direct=1 / weightb=1 / open_gop=0 / weightp=2 / keyint=250 / keyint_min=23 / scenecut=40 / intra_refresh=0 / rc_lookahead=40 / rc=2pass / mbtree=1 / bitrate=4829 / ratetol=1.0 / qcomp=0.60 / qpmin=0 / qpmax=69 / qpstep=4 / cplxblur=20.0 / qblur=0.5 / ip_ratio=1.40 / aq=1:1.00
Language : English
Default : Yes
Forced : No

Audio #1
ID : 2
Format : AC-3
Format/Info : Audio Coding 3
Codec ID : A_AC3
Duration : 1 h 38 min
Bit rate mode : Constant
Bit rate : 192 kb/s
Channel(s) : 2 channels
Channel positions : Front: L R
Sampling rate : 48.0 kHz
Frame rate : 31.250 FPS (1536 SPF)
Bit depth : 16 bits
Compression mode : Lossy
Stream size : 135 MiB (4%)
Title : [UA-MVO-AMC ] 2.0 192 Kb/s
Language : Ukrainian
Service kind : Complete Main
Default : Yes
Forced : Yes

Audio #2
ID : 3
Format : AC-3
Format/Info : Audio Coding 3
Codec ID : A_AC3
Duration : 1 h 38 min
Bit rate mode : Constant
Bit rate : 448 kb/s
Channel(s) : 6 channels
Channel positions : Front: L C R, Side: L R, LFE
Sampling rate : 48.0 kHz
Frame rate : 31.250 FPS (1536 SPF)
Bit depth : 16 bits
Compression mode : Lossy
Stream size : 316 MiB (8%)
Language : English
Service kind : Complete Main
Default : No
Forced : No

Text
ID : 4
Format : UTF-8
Codec ID : S_TEXT/UTF8
Codec ID/Info : UTF-8 Plain Text
Duration : 1 h 25 min
Bit rate : 12 b/s
Count of elements : 301
Stream size : 7.64 KiB (0%)
Title : English
Language : English
Default : No
Forced : No

Menu
00:00:00.000 : en:00:00:00.000
00:09:18.349 : en:00:09:18.349
00:16:43.002 : en:00:16:43.002
00:24:22.378 : en:00:24:22.378
00:30:27.701 : en:00:30:27.701
00:38:47.700 : en:00:38:47.700
00:46:50.933 : en:00:46:50.933
00:54:04.700 : en:00:54:04.700
01:01:39.279 : en:01:01:39.279
01:11:43.925 : en:01:11:43.925
01:23:50.567 : en:01:23:50.567
01:35:58.044 : en:01:35:58.044
Скріншоти




Джерело: &
Подяка Sando7 за запис звуку з amc та Arsenfpu за синхронізацію.
Особиста оцінка: 7 - один раз подивитися можна


 Трекер:    Зареєстрований   

Завантажити / скачати фільм українською



відео для новачків



 Зареєстрований:   2018-09-01 19:24
 Розмір:   3.77 GB 
 Оцінка фільму:   10/10 (Голосів: 2)
   
bot 
робот


З нами з: 30.09.07
Востаннє: 26.05.05
Повідомлень: 19984

2018-09-01 19:24  
Тему перенесено з Анонси релізів до форуму Фільми в HD


staf777

Ваш часовий пояс: GMT + 2 Години

Нова тема   Відповісти