Формула 1. Сезон 2018. Етап 14. Гран-Прі Італії. 1,2 практика (31.08.2018) HDTV 1080i

Нові коментарі

Нова тема   Відповісти
Останній раз роздавалося sergiyko.5 (2019-03-03)
Автор Повідомлення
sergiyko.5 
VIP


З нами з: 25.02.16
Востаннє: 25.10.20
Повідомлень: 3614

2018-08-31 18:00  
Формула 1. Сезон 2018. Етап 14. Гран-Прі Італії. 1,2 практика (31.08.2018) HDTV 1080i

Формула 1. Сезон 2018. Етап 14. Гран-Прі Італії. 1,2 практика (31.08.2018) HDTV 1080i

Жанр: Перегони Формули 1
Країна: Італія
Телеканал: Перший автомобільний
Коментатор: Павло Воробйов

Опис:
Перша та друга практика чотирнадцятого сезону Гран-Прі Італії 2018 року відбулась о 13 та 16 годині за київським часом.


Тривалість: 01:38:24 - 01:39:47
Якість: HDTV

Відео:кодек: розмір кадру: 1920 х 1080 бітрейт: 4880 кб/с
Аудіо: мова: українська кодек: 2.0 бітрейт: 128 кб/с
Про файл:
General
Unique ID : 29867380159968497246606247382998212236 (0x16783F88CB0CE3234F53C85254565E8C)
Complete name : D:\Torrents\SPORT\Formula 1\F1.2018.14.Italian.Practice.1080i.HDTV\F1.2018.14.Italian.Practice.1.1080i.HDTV.
Format :
Format version : Version 4 / Version 2
File size : 3.44 GiB
Duration : 1 h 38 min
Overall bit rate : 5 008 kb/s
Encoded date : UTC 2018-08-31 14:49:47
Writing application : v25.0.0 ('Prog Noir') 64-bit
Writing library : libebml v1.3.6 + v1.4.9

Video
ID : 1
Format : AVC
Format/Info : Advanced Video Codec
Format profile : [email protected]
Format settings : CABAC / 4 Ref Frames
Format settings, CABAC : Yes
Format settings, ReFrames : 4 frames
Codec ID : V_MPEG4/ISO/AVC
Duration : 1 h 38 min
Bit rate : 4 880 kb/s
Width : 1 920 pixels
Height : 1 080 pixels
Display aspect ratio : 16:9
Frame rate mode : Constant
Frame rate : 25.000 FPS
Standard : Component
Color space : YUV
Chroma subsampling : 4:2:0
Bit depth : 8 bits
Scan type : MBAFF
Scan type, store method : Interleaved fields
Scan order : Top Field First
Bits/(Pixel*Frame) : 0.094
Stream size : 3.35 GiB (97%)
Language : English
Default : Yes
Forced : No
Color range : Limited
Color primaries : BT.709
Transfer characteristics : BT.709
Matrix coefficients : BT.709

Audio
ID : 2
Format :
Format/Info : Advanced Audio Codec
Format profile : LC
Codec ID : A_AAC-2
Duration : 1 h 38 min
Bit rate : 125 kb/s
Channel(s) : 2 channels
Channel positions : Front: L R
Sampling rate : 48.0 kHz
Frame rate : 46.875 FPS (1024 SPF)
Compression mode : Lossy
Stream size : 88.2 MiB (3%)
Language : Ukrainian
Default : Yes
Forced : No
Скріншоти:


Автор запису: sergiyko


 Трекер:    Зареєстрований   

Завантажити / скачати торрент



відео для новачків



 Зареєстрований:   2018-08-31 18:00
 Розмір:   7.18 GB 
 Оцінка:   10/10 (Голосів: 3)
   
legioneRRR 
Частий відвідувач


З нами з: 02.01.15
Востаннє: 24.10.20
Повідомлень: 33

2018-08-31 19:43  
воу воу. оце так бонус в п'ятницю ввечері!
Ваш часовий пояс: GMT + 2 Години

Нова тема   Відповісти