Молода кров / Youngblood (1986) Remux 1080p Ukr/Eng

Нові коментарі

Нова тема   Відповісти
Останній раз роздавалося drop_plz (2020-09-25)
Автор Повідомлення
Anonymous 







2018-08-31 16:51  
Молода кров / Youngblood (1986) Remux 1080p Ukr/Eng

Молода кров / Youngblood (1986) Remux 1080p Ukr/Eng


Жанр: спорт, драма
Країна: США



Кінокомпанія: Blueline Productions, Guber-Peters Company, The, United Artists
Режисер: Пітер Маркл
Актори: Роб Лоу, Сінтія Гібб, Патрік Свейзі, Ед Лоутер, Джим Янгс, Файоннула Фленнеген, Ерік Нестеренко, Кіану Рівз

Сюжет:
Сімнадцятирічний хлопець мріє грати в хокейній лізі і хоче стати кращим гравцем. Він приїжджає в нове місто безневинним молодиком. Над ним відверто сміються і його товариші по команді і суперники. Після нещасного випадку з капітаном команди, нашому новачкові випадає шанс виграти у заклятих ворогів. Головний герой гарячий, швидкий і шибайголова. Таким він і повинен бути.


Тривалість: 01:49:51
Якість: Remux 1080p
Відео:
кодек:
розмір кадру: 1920х1080
бітрейт: 17,6 Мб/с

Аудіо # 1:
мова: українська
переклад: багатоголосий закадровий
кодек: 2.0
бітрейт: 192 кб/с

Аудіо # 2:
мова: англійська
переклад: оригінал
кодек: 2.0
бітрейт: 192 кб/с
Info
General
Unique ID : 186155584736525624824247828333282534944 (0x8C0C42F1652E50B6A5A17C9DF7752620)
Format :
Format version : Version 4 / Version 2
File size : 14.1 GiB
Duration : 1 h 49 min
Overall bit rate mode : Variable
Overall bit rate : 18.3 Mb/s
Encoded date : UTC 2018-08-31 13:40:49
Writing application : v6.1.0 ('Old Devil') built on Mar 4 2013 09:10:42
Writing library : libebml v1.3.0 + v1.4.0

Video
ID : 1
Format : AVC
Format/Info : Advanced Video Codec
Format profile : [email protected]
Format settings : CABAC / 4 Ref Frames
Format settings, CABAC : Yes
Format settings, ReFrames : 4 frames
Codec ID : V_MPEG4/ISO/AVC
Duration : 1 h 49 min
Bit rate mode : Variable
Bit rate : 17.6 Mb/s
Maximum bit rate : 30.0 Mb/s
Width : 1 920 pixels
Height : 1 080 pixels
Display aspect ratio : 16:9
Frame rate mode : Constant
Frame rate : 23.976 (24000/1001) FPS
Standard : NTSC
Color space : YUV
Chroma subsampling : 4:2:0
Bit depth : 8 bits
Scan type : Progressive
Bits/(Pixel*Frame) : 0.354
Stream size : 13.5 GiB (96%)
Title : Youngblood.1986.1080p.BluRay.REMUX.AVC.DD2.0-FGT
Language : English
Default : No
Forced : No
Color range : Limited
Color primaries : BT.709
Transfer characteristics : BT.709
Matrix coefficients : BT.709
Statistics Tags Issue : v26.0.0 ('In The Game') 64-bit 2018-08-30 09:39:07 / v6.1.0 ('Old Devil') built on Mar 4 2013 09:10:42 2018-08-31 13:40:49
FromStats_BitRate : 17959495
FromStats_Duration : 01:49:50.918000000
FromStats_FrameCount : 158024
FromStats_StreamSize : 14796195277

Audio #1
ID : 2
Format : AC-3
Format/Info : Audio Coding 3
Codec ID : A_AC3
Duration : 1 h 49 min
Bit rate mode : Constant
Bit rate : 192 kb/s
Channel(s) : 2 channels
Channel positions : Front: L R
Sampling rate : 48.0 kHz
Frame rate : 31.250 FPS (1536 SPF)
Bit depth : 16 bits
Compression mode : Lossy
Stream size : 151 MiB (1%)
Title : UKR (AMC)
Language : Ukrainian
Service kind : Complete Main
Default : Yes
Forced : Yes

Audio #2
ID : 3
Format : AC-3
Format/Info : Audio Coding 3
Codec ID : A_AC3
Duration : 1 h 49 min
Bit rate mode : Constant
Bit rate : 192 kb/s
Channel(s) : 2 channels
Channel positions : Front: L R
Sampling rate : 48.0 kHz
Frame rate : 31.250 FPS (1536 SPF)
Bit depth : 16 bits
Compression mode : Lossy
Stream size : 151 MiB (1%)
Language : English
Service kind : Complete Main
Default : No
Forced : No
Statistics Tags Issue : v26.0.0 ('In The Game') 64-bit 2018-08-30 09:39:07 / v6.1.0 ('Old Devil') built on Mar 4 2013 09:10:42 2018-08-31 13:40:49
FromStats_BitRate : 192000
FromStats_Duration : 01:49:50.848000000
FromStats_FrameCount : 205964
FromStats_StreamSize : 158180352

Menu
00:00:00.000 : en:Chapter 01
00:10:32.715 : en:Chapter 02
00:24:09.781 : en:Chapter 03
00:38:14.292 : en:Chapter 04
00:54:44.447 : en:Chapter 05
01:09:16.402 : en:Chapter 06
01:25:25.036 : en:Chapter 07
01:43:27.409 : en:Chapter 08
Скріншоти









За українську доріжку подяка п.: Sando7, Bulka27
Особиста подяка пану denixx за надану матеріальну допомогу на підтримку цього і майбутніх релізів.
Джерело:


Золотий реліз (завантажене не впливає на рейтинг)
 Трекер:    Зареєстрований   

Завантажити / скачати фільм українською



відео для новачків



 Зареєстрований:   2018-08-31 16:51
 Розмір:   14.08 GB 
 Оцінка фільму:   10/10 (Голосів: 2)
   
Інші релізи
   Молода кров / Youngblood (1986) Arsenfpu  2 / 0   1.46 GB   2016-09-20 23:12 
igor911 
Модератор відео


З нами з: 18.01.08
Востаннє: 25.09.20
Повідомлень: 15006

2018-09-16 13:25  
Anonymous написано:
1080p

Це ремукс, виправив.

Додано через 1 хвилину 26 секунд:

і надав "золото"

Ваш часовий пояс: GMT + 2 Години

Нова тема   Відповісти