Мінлива хмарність часом фрикадельки (Сезон 1, серії 1-7, 9-12 з 52) / Cloudy with a Chance of Meatballs (Season 1, episodes 1-7, 9-12 of 52) (2017) HDTV 1080p Ukr/Eng

Нові коментарі

Нова тема   Відповісти
Останній раз роздавалося [email protected] (2021-04-22)
Автор Повідомлення
Anonymous 







2018-08-31 12:07  
Мінлива хмарність часом фрикадельки (Сезон 1, серії 1-7, 9-12 з 52)
Cloudy with a Chance of Meatballs
(Season 1, episodes 1-7, 9-12 of 52) (2017) HDTV 1080p Ukr/Eng

Мінлива хмарність часом фрикадельки (Сезон 1, серії 1-7, 9-12 з 52) / Cloudy with a Chance of Meatballs (Season 1, episodes 1-7, 9-12 of 52) (2017) HDTV 1080p Ukr/Eng


Жанр: анімація, комедія, сімейний
Країна: Канада, США.



Кінокомпанія: DHX Media,Sony Pictures Animation,Sony Pictures Television
Режисер: Ендрю Дункан
Актори: Кле Беннетт, Марк Едвардс, Кеті Гріффін, Патрік Маккенна, Сіан Каллен.

Сюжет:
Пріквел до фільму 2009 року.
Пригоди Флінта Локвуда та його найкращої подружки Сем Спаркс під час середньої школи.


Тривалість: 1 серія: 11хв (цілком серій:12 з 52)
Перелік серій
1. І переможець
2. Принцеса рукавичка
3. Винайдіть нам
4. Смажений бекон
5. Це хто тут мотлох?
6. Баллада про Джоні сардину
7. Мавпа - мільйонер
8.
9. Спойлерна куля
10. Нашестя панд
11. Вхід лише для винахідників
12. Кукуріку
13. Сардемон
Якість: HDTV [Український відеоряд]
Відео:
кодек:
розмір кадру: 1920 х 1080
бітрейт: 2500 - 7000 кб/с

Аудіо # 1:
мова: українська
переклад: професійний дубльований
кодек: MP2/ 2.0
бітрейт: 128 - 224 кб/с

Джерело озвучення:


Аудіо # 2:
мова: англійська
переклад: оригінал
кодек: MP2/ 2.0
бітрейт: 128 - 224 кб/с
Info
Complete name : H:\Serials\Cloudy with a Chance of Meatballs (S01)\s01e04.
Format :
Format version : Version 4 / Version 2
File size : 216 MiB
Duration : 10 min 36 s
Overall bit rate : 2 846 kb/s
Encoded date : UTC 2018-08-31 08:45:47
Writing application : v24.0.0 ('Beyond The Pale') 64-bit
Writing library : libebml v1.3.6 + v1.4.9

Video
ID : 1
Format : AVC
Format/Info : Advanced Video Codec
Format profile : [email protected]
Format settings : CABAC / 4 Ref Frames
Format settings, CABAC : Yes
Format settings, ReFrames : 4 frames
Codec ID : V_MPEG4/ISO/AVC
Duration : 10 min 36 s
Bit rate mode : Constant
Bit rate : 2 586 kb/s
Nominal bit rate : 3 400 kb/s
Width : 1 920 pixels
Height : 1 080 pixels
Display aspect ratio : 16:9
Frame rate mode : Constant
Frame rate : 25.000 FPS
Color space : YUV
Chroma subsampling : 4:2:0
Bit depth : 8 bits
Scan type : Progressive
Bits/(Pixel*Frame) : 0.050
Stream size : 196 MiB (91%)
Language : Ukrainian
Default : Yes
Forced : No

Audio #1
ID : 2
Format :
Format/Info : Advanced Audio Codec
Format profile : LC
Codec ID : A_AAC-2
Duration : 10 min 36 s
Bit rate : 128 kb/s
Channel(s) : 2 channels
Channel positions : Front: L R
Sampling rate : 48.0 kHz
Frame rate : 46.875 FPS (1024 SPF)
Compression mode : Lossy
Delay relative to video : -65 ms
Stream size : 9.74 MiB (5%)
Title : DUB [Nilki Kids]
Language : Ukrainian
Default : Yes
Forced : No

Audio #2
ID : 3
Format :
Format/Info : Advanced Audio Codec
Format profile : LC
Codec ID : A_AAC-2
Duration : 10 min 36 s
Bit rate : 128 kb/s
Channel(s) : 2 channels
Channel positions : Front: L R
Sampling rate : 48.0 kHz
Frame rate : 46.875 FPS (1024 SPF)
Compression mode : Lossy
Delay relative to video : -64 ms
Stream size : 9.73 MiB (5%)
Title : Оригінал
Language : English
Default : No
Forced : No
Скріншоти








Оновлено: 01.05.19 - додано 6у та 13у серії.


Джерело:


Бронзовий реліз (на рейтинг впливає 75% завантаженого)
 Трекер:    Зареєстрований   

Завантажити / скачати мультфільм українською



відео для новачків



 Зареєстрований:   2019-05-01 17:35
 Розмір:   3.99 GB 
 Оцінка мультсеріалу:   9.7/10 (Голосів: 6)
   
pipenpodl 
Новенький


З нами з: 02.03.16
Востаннє: 21.04.21
Повідомлень: 3

2020-03-24 16:59  
Будь ласочка, станьте на роздачу
Ваш часовий пояс: GMT + 2 Години

Нова тема   Відповісти