Хто підставив кролика Роджера / Who Framed Roger Rabbit (1988) AVC Ukr/Eng | Sub Eng

Нові коментарі

Нова тема   Відповісти
Автор Повідомлення
staf777 
Відео Гуртом - підтримка та поширення
Відео Гуртом - підтримка та поширення


З нами з: 16.11.16
Востаннє: 18.04.19
Повідомлень: 2258

2018-08-31 09:56  
Хто підставив кролика Роджера / Who Framed Roger Rabbit (1988) AVC Ukr/Eng | Sub Eng

Хто підставив кролика Роджера / Who Framed Roger Rabbit (1988) AVC Ukr/Eng | Sub Eng


Жанр: анімація, комедія, кримінальний, фентезі
Країна: США



Кінокомпанія: Touchstone Pictures, Amblin Entertainment, Silver Screen Partners III
Режисер: Роберт Земекіс / Robert Zemeckis
Актори: Боб Госкінс / Bob Hoskins, Крістофер Ллойд / Christopher Lloyd, Джоанна Кессіді / Joanna Cassidy, Чарльз Флейчер / Charles Fleischer, Стуббі Кейн / Stubby Kaye, Алан Тілвьверн / Alan Tilvern, Річард ЛеПарментієр / Richard LeParmentier, Лу Хірш / Lou Hirsch, Бетсі Брентлі / Betsy Brantley, Джоель Сільвер / Joel Silver

Сюжет:
Приватний детектив розслідує загадковий злочин, в якому підозрюється ... мультиплікаційний персонаж кролик Роджер! Сищик потрапляє в непередбачуваний світ, де його чекають намальовані лиходії із справжніми револьверами, автомобіль, що розмовляє і спокуслива мультяшна красуня.

Нарешті, на горизонті з'являється похмура фігура того, хто підставив кролика Роджера ...


Тривалість: 01:43:45
Якість: AVC
Відео:
кодек:
розмір кадру: 1024х554
бітрейт: 2932 кб/с

Аудіо # 1:
мова: українська
переклад: багатоголосий закадровий
кодек: 2.0
бітрейт: 192 кб/с

Аудіо # 2:
мова: англійська
переклад: оригінал
кодек: 5.1
бітрейт: 384 кб/с

Джерело озвучення:


Субтитри:
мова: англійська
тип: програмні (м'які)
формат: *.srt
Скріншоти



MI
General
Unique ID : 214232259699195917202584537919655804985 (0xA12BA1E505882EE3CC6ABD6A75DC8039)
Complete name : H:\Who Framed Roger Rabbit [1988] AVC [UKR_ENG] [Hurtom].
Format :
Format version : Version 4 / Version 2
File size : 2.54 GiB
Duration : 1 h 43 min
Overall bit rate : 3 510 kb/s
Movie name : Who Framed Roger Rabbit [1988] AVC [UKR_ENG] [Hurtom]
Encoded date : UTC 2018-08-31 05:58:36
Writing application : v24.0.0 ('Beyond The Pale') 64-bit
Writing library : libebml v1.3.6 + v1.4.9
Cover : Yes
Attachments : cover.jpg

Video
ID : 1
Format : AVC
Format/Info : Advanced Video Codec
Format profile : [email protected]
Format settings : CABAC / 8 Ref Frames
Format settings, CABAC : Yes
Format settings, ReFrames : 8 frames
Codec ID : V_MPEG4/ISO/AVC
Duration : 1 h 43 min
Bit rate : 2 932 kb/s
Width : 1 024 pixels
Height : 554 pixels
Display aspect ratio : 1.85:1
Frame rate mode : Constant
Frame rate : 23.976 (24000/1001) FPS
Color space : YUV
Chroma subsampling : 4:2:0
Bit depth : 8 bits
Scan type : Progressive
Bits/(Pixel*Frame) : 0.216
Stream size : 2.12 GiB (84%)
Title : Rip by 0ptimus
Writing library : core 129 r2245 bc13772
Encoding settings : cabac=1 / ref=8 / deblock=1:-3:-3 / analyse=0x3:0x113 / me=umh / subme=10 / psy=1 / psy_rd=1.00:0.20 / mixed_ref=1 / me_range=32 / chroma_me=1 / trellis=2 / 8x8dct=1 / cqm=0 / deadzone=21,11 / fast_pskip=0 / chroma_qp_offset=-3 / threads=4 / lookahead_threads=1 / sliced_threads=0 / nr=0 / decimate=0 / interlaced=0 / bluray_compat=0 / constrained_intra=0 / bframes=7 / b_pyramid=2 / b_adapt=2 / b_bias=0 / direct=3 / weightb=1 / open_gop=0 / weightp=2 / keyint=240 / keyint_min=23 / scenecut=40 / intra_refresh=0 / rc_lookahead=40 / rc=2pass / mbtree=0 / bitrate=2932 / ratetol=1.0 / qcomp=0.60 / qpmin=0 / qpmax=69 / qpstep=4 / cplxblur=20.0 / qblur=0.5 / vbv_maxrate=50000 / vbv_bufsize=50000 / nal_hrd=none / ip_ratio=1.40 / pb_ratio=1.30 / aq=1:1.00
Language : English
Default : Yes
Forced : Yes

Audio #1
ID : 2
Format : AC-3
Format/Info : Audio Coding 3
Codec ID : A_AC3
Duration : 1 h 43 min
Bit rate mode : Constant
Bit rate : 192 kb/s
Channel(s) : 2 channels
Channel positions : Front: L R
Sampling rate : 48.0 kHz
Frame rate : 31.250 FPS (1536 SPF)
Bit depth : 16 bits
Compression mode : Lossy
Stream size : 142 MiB (5%)
Title : [UA-MVO-K1]
Language : Ukrainian
Service kind : Complete Main
Default : Yes
Forced : Yes

Audio #2
ID : 3
Format : AC-3
Format/Info : Audio Coding 3
Codec ID : A_AC3
Duration : 1 h 43 min
Bit rate mode : Constant
Bit rate : 384 kb/s
Channel(s) : 6 channels
Channel positions : Front: L C R, Side: L R, LFE
Sampling rate : 48.0 kHz
Frame rate : 31.250 FPS (1536 SPF)
Bit depth : 16 bits
Compression mode : Lossy
Stream size : 285 MiB (11%)
Title : 5.1 @ 384 kbps
Language : English
Service kind : Complete Main
Default : No
Forced : No

Text
ID : 4
Format : UTF-8
Codec ID : S_TEXT/UTF8
Codec ID/Info : UTF-8 Plain Text
Duration : 1 h 41 min
Bit rate : 67 b/s
Count of elements : 1476
Stream size : 50.0 KiB (0%)
Title : SDH
Language : English
Default : No
Forced : No

Menu
00:00:00.000 : :Opening Credits / "Somethings Cookin'"
00:05:33.458 : :Hollywood 1947
00:09:44.625 : :Public Transportation System
00:14:06.136 : :Ink and Pain Club
00:20:40.614 : :Patty-Cake
00:28:53.022 : :Scene of the Crime
00:34:07.128 : :Roger Finds Eddy
00:41:12.094 : :Toon Patrol
00:46:27.993 : :Jessica's Plea
00:49:36.890 : :Shave and a Harcut
00:57:14.013 : :Benny the Cab
01:03:33.434 : :The Connection
01:07:24.373 : :Toontown
01:12:08.782 : :Eddie Takes a Fall
01:16:45.809 : :Doom's Plan
01:22:05.921 : :Getting Dipped
01:28:49.032 : :Eddie's Toon Enemy
01:34:23.199 : :Acme's Will / End Credits
Джерело: &
Особиста оцінка: 10 - без зайвих вагань рекомендую всім!


Срібний реліз (на рейтинг впливає 50% завантаженого)
 Трекер:    Зареєстрований   

Завантажити / скачати фільм українською



відео для новачків



 Зареєстрований:   2018-08-31 09:56
 Розмір:   2.54 GB 
 Оцінка фільму:   9.4/10 (Голосів: 19)
   
Ваш часовий пояс: GMT + 2 Години

Нова тема   Відповісти