Великий каньйон / Grand Canyon (1991) AVC Ukr/Eng | Sub Ukr/Eng

Нові коментарі

Нова тема   Відповісти
Автор Повідомлення
staf777 
Відео Гуртом - підтримка та поширення
Відео Гуртом - підтримка та поширення


З нами з: 16.11.16
Востаннє: 10.08.20
Повідомлень: 3934

2018-08-31 08:50  
Великий каньйон / Grand Canyon (1991) AVC Ukr/Eng | Sub Ukr/Eng

Великий каньйон / Grand Canyon (1991) AVC Ukr/Eng | Sub Ukr/Eng


Жанр: драма, психологічний
Країна: США



Кінокомпанія: Twentieth Century Fox Film Corporation
Режисер: Лоуренс Каздан
Актори: Денні Гловер, Кевін Кляйн, Стів Мартін, Мері МакДоннел, Мері-Луїз Паркер, Алфрі Вудард

Сюжет:
У будь-якої людини є свій ангел-охоронець. І зовсім необов'язково, що в потрібний момент він з'явиться в образі надприродної крилатої істоти. Ним сповна може виявитися звичайна жінка в бейсболці, яка в останню секунду відтягнула тебе від автобуса, що проноситься перед твоїм носом.

Або чорношкірий автомеханік, що ризикнув своїм життям і закрив тебе своїми грудьми від жадаючої крові озброєної шпани. Або близький друг, який не дасть з'їхати з глузду після того, як огидливий грабіжник-наркоман підстрелив тебе і практично зробив інвалідом.

Люди і їх рятівники містичним чином зв'язані між собою. І, можливо, ти сам вже вибраний охоронцем людини, якої ще не знаєш...


Тривалість: 02:14:27
Якість: AVC
Відео:
кодек:
розмір кадру: 1024x436
бітрейт: 3500 кб/с

Аудіо # 1:
мова: українська
переклад: двоголосий закадровий Кіно
кодек: 2.0
бітрейт: 256 кб/с

Аудіо # 2:
мова: англійська
переклад: оригінал
кодек: 5.1
бітрейт: 448 кб/с

Субтитри:
мова: українська
тип: програмні (м'які)
формат: *.srt

Субтитри:
мова: англійська
тип: програмні (м'які)
формат: *.srt
Скріншоти



MI
General
Unique ID : 314547250727003488562721526285789515785 (0xECA398CF17B1867A3467426B9E1F5009)
Complete name : H:\» Українське озвучення » Фільми\Драма\Grand Canyon (1991) AVC [UKR_ENG] [Hurtom].
Format :
Format version : Version 4 / Version 2
File size : 3.95 GiB
Duration : 2 h 14 min
Overall bit rate : 4 204 kb/s
Movie name : Grand Canyon (1991) AVC [UKR_ENG] [Hurtom]
Encoded date : UTC 2018-08-31 04:51:28
Writing application : v24.0.0 ('Beyond The Pale') 64-bit
Writing library : libebml v1.3.6 + v1.4.9
Cover : Yes
Attachments : cover.jpg

Video
ID : 1
Format : AVC
Format/Info : Advanced Video Codec
Format profile : [email protected]
Format settings : CABAC / 9 Ref Frames
Format settings, CABAC : Yes
Format settings, ReFrames : 9 frames
Codec ID : V_MPEG4/ISO/AVC
Duration : 2 h 14 min
Bit rate : 3 500 kb/s
Width : 1 024 pixels
Height : 436 pixels
Display aspect ratio : 2.35:1
Frame rate mode : Constant
Frame rate : 23.976 (24000/1001) FPS
Original frame rate : 23.976 (23976/1000) FPS
Color space : YUV
Chroma subsampling : 4:2:0
Bit depth : 8 bits
Scan type : Progressive
Bits/(Pixel*Frame) : 0.327
Stream size : 3.29 GiB (83%)
Title : Boljshoj.kanjon.1991...AVC.MediaClub
Writing library : core 130 r2273 b3065e6
Encoding settings : cabac=1 / ref=9 / deblock=1:-2:-2 / analyse=0x3:0x133 / me=umh / subme=11 / psy=1 / psy_rd=1.00:0.20 / mixed_ref=1 / me_range=32 / chroma_me=1 / trellis=2 / 8x8dct=1 / cqm=0 / deadzone=21,11 / fast_pskip=0 / chroma_qp_offset=-3 / threads=3 / lookahead_threads=1 / sliced_threads=0 / nr=0 / decimate=0 / interlaced=0 / bluray_compat=0 / constrained_intra=0 / bframes=8 / b_pyramid=2 / b_adapt=2 / b_bias=0 / direct=3 / weightb=1 / open_gop=0 / weightp=2 / keyint=240 / keyint_min=23 / scenecut=40 / intra_refresh=0 / rc=2pass / mbtree=0 / bitrate=3500 / ratetol=1.0 / qcomp=0.60 / qpmin=0 / qpmax=69 / qpstep=4 / cplxblur=20.0 / qblur=0.5 / ip_ratio=1.40 / pb_ratio=1.30 / aq=1:1.00
Language : English
Default : Yes
Forced : No

Audio #1
ID : 2
Format : AC-3
Format/Info : Audio Coding 3
Codec ID : A_AC3
Duration : 2 h 14 min
Bit rate mode : Constant
Bit rate : 256 kb/s
Channel(s) : 2 channels
Channel positions : Front: L R
Sampling rate : 48.0 kHz
Frame rate : 31.250 FPS (1536 SPF)
Bit depth : 16 bits
Compression mode : Lossy
Stream size : 246 MiB (6%)
Title : TRACK_01_DVO_UKR
Language : Ukrainian
Service kind : Complete Main
Default : Yes
Forced : Yes

Audio #2
ID : 3
Format : AC-3
Format/Info : Audio Coding 3
Codec ID : A_AC3
Duration : 2 h 14 min
Bit rate mode : Constant
Bit rate : 448 kb/s
Channel(s) : 6 channels
Channel positions : Front: L C R, Side: L R, LFE
Sampling rate : 48.0 kHz
Frame rate : 31.250 FPS (1536 SPF)
Bit depth : 16 bits
Compression mode : Lossy
Stream size : 431 MiB (11%)
Title : TRACK_02_ORIGINAL_ENG
Language : English
Service kind : Complete Main
Default : No
Forced : No

Text #1
ID : 4
Format : UTF-8
Codec ID : S_TEXT/UTF8
Codec ID/Info : UTF-8 Plain Text
Duration : 2 h 8 min
Bit rate : 78 b/s
Count of elements : 1283
Stream size : 74.3 KiB (0%)
Title : TEXT_03_SUB_UKR
Language : Ukrainian
Default : No
Forced : No

Text #2
ID : 5
Format : UTF-8
Codec ID : S_TEXT/UTF8
Codec ID/Info : UTF-8 Plain Text
Duration : 2 h 7 min
Bit rate : 67 b/s
Count of elements : 1748
Stream size : 63.3 KiB (0%)
Title : TEXT_04_SUB_ENG
Language : English
Default : No
Forced : No

Menu
00:00:25.776 : en:Main Titles.
00:03:59.030 : en:Struggling for Control.
00:07:41.294 : en:Wrong Side of Town.
00:12:26.829 : en:Rescued.
00:17:40.893 : en:Waiting Up.
00:21:41.592 : en:Mack & Simon.
00:25:07.047 : en:Davis.
00:26:20.746 : en:Off to Camp.
00:28:53.899 : en:A Bullet for a Rolex.
00:30:11.643 : en:The Baby in the Bushes.
00:34:57.429 : en:Simon's Daughter.
00:37:06.599 : en:The Love Thing.
00:39:05.969 : en:Claire's Suprise.
00:43:13.341 : en:Living in a War Zone.
00:48:26.278 : en:City of Angels.
00:54:12.124 : en:A World Wihout Sense.
00:58:29.297 : en:Dreams.
01:04:44.297 : en:Leaving the Hospital.
01:10:21.551 : en:Breakfast with Simon.
01:20:04.300 : en:Finished with Violence.
01:23:12.071 : en:The Matchmaker.
01:28:56.289 : en:Roberto's Return.
01:33:28.853 : en:Fixed Up.
01:36:10.348 : en:Connections.
01:40:26.771 : en:Dee's Bad Night.
01:43:45.511 : en:Canoga Park.
01:48:55.446 : en:Quitting.
01:54:43.669 : en:The Driving Lesson.
02:00:19.713 : en:So Close Together.
02:02:14.953 : en:Davis's Responsibility.
02:06:52.564 : en:Simon's Idea.
02:09:54.412 : en:End Titles
Джерело: &
Особиста оцінка: 0 - не дивився


Срібний реліз (на рейтинг впливає 50% завантаженого)
 Трекер:    Зареєстрований   

Завантажити / скачати фільм українською



відео для новачків



 Зареєстрований:   2018-08-31 08:50
 Розмір:   3.95 GB 
 Оцінка фільму:   9.3/10 (Голосів: 14)
   
Інші релізи
Myk1209 
VIP


З нами з: 04.02.12
Востаннє: 09.08.20
Повідомлень: 313

2018-11-15 18:01  
Фільм дуже сподобався,10/10 з вдячністю Wink (1)
rudder1992 
Поважний учасник


З нами з: 26.02.17
Востаннє: 10.08.20
Повідомлень: 174

2020-07-13 23:32  
Классний фільм із незвичним сюжетом, що робить це кіно ще цікавішим.
Я надзвичайно вражений переглядом данної картини. Шкода, що ніколи раніше його не бачив.
А чудовий голос Г. Гавриленка тільки доповнює всю красу і потрібну атемосферу.
Фільм наче про 'все і про нічого'. Фільм про історії і проблеми різних людей. Фільм про мрії і життєві невдачі. Фільм про природні людські бажання і страхи...Фільм про сенс життя і пошук відповідей на нього... І зрештою, для мене особисто, це кіно про мрії людей житти в мирі і без війни!
Давно вже не бачив фільмів із таким глибоким змістом. Спочатку може здатись, що фільм дещо незрозумілий чи запутаний, але згодом все ''проясняється')) Адже по суті, ті проблеми, які мають персонажі цього фільму знайомі напевно кожному з нас, незалежно від того якої ми національності, чи соціалного статусу.
Режиссер, наче спонукує глядача зупинитись на хвильку і задумуватись над багатьма життєво важливими запитаннями, бо життя швидкоплинне... Варто і кожному з нас на певний час покинути всю цю суєту і знайти свій ''Великий Каньйон'' і поїхати зі своїми рідними чи близькими друзями і відпочити від цього шаленого темпу, в якому ми усі можемо знаходитись та замислитись над своїми життям.

Лоуренс Кездан чудовий сценарист і режиссер. (не дарма данна картина була номінована на ОСКАР за кращий сценарій)
Не можу не відмітити прекрасну музику композитора Джеймса Н. Говарда.
Багатогранна і атмосферна, що чудово передає складні і різноманітні емоції персонажів.
Бажаю усім приємного і цікавого перегляду.
10 із 10!
(рейтинг на імдб явно занижений)

+380954897458 
Попереджень: 1
Попереджень: 1 


З нами з: 02.06.17
Востаннє: 11.08.20
Повідомлень: 925

2020-07-14 10:10  
rudder1992 написано:
Лоуренс Кездан чудовий сценарист і режиссер. (не дарма дана картина була номінована на ОСКАР за кращий сценарій)

А ще фільм отримав Золотого ведмедя на Берлінському кінофестивалі. Каздан дійсно талановитий сценарист та режисер. Один з моїх улюблених. Його перу належать сценарії до першого і найкращого Індіани Джонса; "Охоронця" з Кевіном Костнером; кількох частин із саги "Зоряні війни" - "Імперія завдає удару у відповідь", "Повернення джедая", "Пробудження сили" (про "Соло" делікатно промовчу Happy); еталонних вестернів, в яких він був також і режисером- "Сільверадо" та "Уаятт Ерп". Так що важко переоцінити його роль у розвитку сучасного кінематографу.

rudder1992 
Поважний учасник


З нами з: 26.02.17
Востаннє: 10.08.20
Повідомлень: 174

2020-07-22 03:57  
Повністю згоден з Вами!
Каздан плодовитий режисер і сценарист. Його вклад в кіно значний.

Ваш часовий пояс: GMT + 2 Години

Нова тема   Відповісти