Зазублене лезо / Jagged Edge (1985) 1080p Ukr/Eng | Sub Eng

Нові коментарі

Нова тема   Відповісти
Автор Повідомлення
Anonymous 







2018-08-31 06:53  
Зазублене лезо / Jagged Edge (1985) 1080p Ukr/Eng | Sub Eng

Зазублене лезо / Jagged Edge (1985) 1080p Ukr/Eng | Sub Eng


Жанр: кримінальний, трилер
Країна: США



Кінокомпанія: Columbia Pictures
Режисер: Річард Маркуанд
Актори: Джеф Бріджес, Гленн Клоуз, Пітер Койот, Ленс Генріксен, Роберт Лоджіа

Сюжет:
Почуття позбавляють нас об'єктивності і ведуть до катастрофи там, де потрібен виключно холодний розум. Жінка-адвокат Теді Барні забула цю просту істину, закохавшись в свого клієнта, багача Джека Форрестера, звинуваченого у вбивстві дружини. Чим сильніша її пристрасть до Джека, тим більше у суду приводів сумніватися в його невинності. Любов сліпа, але навіть одурманена нею Теді не в силах закрити очі на накоплені дивацтва в справі її чарівного клієнта. Напруга наростає з кожною хвилиною. Так хто ж він, цей Джек Форрестер - жертва необгрунтованих підозр, чи спритний і хитрий вбивця, який намагається обвести всіх навколо пальця?


Тривалість: 01:48:42
Якість: 1080p
Відео:
кодек:
розмір кадру: 1920х1040
бітрейт: 10 Мб/с

Аудіо # 1:
мова: українська
переклад: багатоголосий закадровий ,
кодек: 2.0
бітрейт: 192 кб/с

Аудіо # 2:
мова: англійська
переклад: оригінал
кодек: 5.1
бітрейт: 1509 кб/с

Субтитри:
мова: англійська
тип: програмні (м'які)
формат: *.srt
Info
General
Unique ID : 214598666646730452854538644595924274769 (0xA1723326E1F17C45A01E7E8A7C580E51)
Format :
Format version : Version 4 / Version 2
File size : 8.88 GiB
Duration : 1 h 48 min
Overall bit rate : 11.7 Mb/s
Encoded date : UTC 2018-08-31 03:45:42
Writing application : v6.1.0 ('Old Devil') built on Mar 4 2013 09:10:42
Writing library : libebml v1.3.0 + v1.4.0

Video
ID : 1
Format : AVC
Format/Info : Advanced Video Codec
Format profile : [email protected]
Format settings : CABAC / 4 Ref Frames
Format settings, CABAC : Yes
Format settings, ReFrames : 4 frames
Codec ID : V_MPEG4/ISO/AVC
Duration : 1 h 48 min
Bit rate : 10.0 Mb/s
Width : 1 920 pixels
Height : 1 040 pixels
Display aspect ratio : 1.85:1
Frame rate mode : Constant
Frame rate : 23.976 (24000/1001) FPS
Color space : YUV
Chroma subsampling : 4:2:0
Bit depth : 8 bits
Scan type : Progressive
Bits/(Pixel*Frame) : 0.209
Stream size : 7.42 GiB (83%)
Writing library : core 125 r2200 999b753
Encoding settings : cabac=1 / ref=4 / deblock=1:0:0 / analyse=0x3:0x133 / me=umh / subme=8 / psy=1 / psy_rd=1.00:0.00 / mixed_ref=1 / me_range=16 / chroma_me=1 / trellis=1 / 8x8dct=1 / cqm=0 / deadzone=21,11 / fast_pskip=0 / chroma_qp_offset=-2 / threads=12 / lookahead_threads=2 / sliced_threads=0 / nr=0 / decimate=1 / interlaced=0 / bluray_compat=0 / constrained_intra=0 / bframes=3 / b_pyramid=2 / b_adapt=1 / b_bias=0 / direct=1 / weightb=1 / open_gop=0 / weightp=2 / keyint=250 / keyint_min=25 / scenecut=40 / intra_refresh=0 / rc_lookahead=40 / rc=2pass / mbtree=1 / bitrate=10004 / ratetol=1.0 / qcomp=0.60 / qpmin=0 / qpmax=69 / qpstep=4 / cplxblur=20.0 / qblur=0.5 / ip_ratio=1.40 / aq=1:1.00
Language : English
Default : Yes
Forced : No

Audio #1
ID : 2
Format : AC-3
Format/Info : Audio Coding 3
Codec ID : A_AC3
Duration : 1 h 48 min
Bit rate mode : Constant
Bit rate : 192 kb/s
Channel(s) : 2 channels
Channel positions : Front: L R
Sampling rate : 48.0 kHz
Frame rate : 31.250 FPS (1536 SPF)
Bit depth : 16 bits
Compression mode : Lossy
Stream size : 149 MiB (2%)
Title : UKR (Inter, K1)
Language : Ukrainian
Service kind : Complete Main
Default : Yes
Forced : Yes

Audio #2
ID : 3
Format :
Format/Info : Digital Theater Systems
Codec ID : A_DTS
Duration : 1 h 48 min
Bit rate mode : Constant
Bit rate : 1 509 kb/s
Channel(s) : 6 channels
Channel positions : Front: L C R, Side: L R, LFE
Sampling rate : 48.0 kHz
Frame rate : 93.750 FPS (512 SPF)
Bit depth : 24 bits
Compression mode : Lossy
Stream size : 1.15 GiB (13%)
Language : English
Default : No
Forced : No

Text
ID : 4
Format : UTF-8
Codec ID : S_TEXT/UTF8
Codec ID/Info : UTF-8 Plain Text
Title : Eng
Language : English
Default : Yes
Forced : No
Скріншоти






За українську доріжку подяка п.: NemoInFire, dvorsky
Особиста подяка пану denixx за надану матеріальну допомогу на підтримку цього і майбутніх релізів.
Джерело:


Срібний реліз (на рейтинг впливає 50% завантаженого)
 Трекер:    Зареєстрований   

Завантажити / скачати фільм українською



відео для новачків



 Зареєстрований:   2018-08-31 06:53
 Розмір:   8.88 GB 
 Оцінка фільму:   10/10 (Голосів: 1)
   
Інші релізи
   Зазублене лезо / Jagged Edge (1985) NemoInFire  1 / 0   1.69 GB   2012-06-07 20:36 
Ваш часовий пояс: GMT + 2 Години

Нова тема   Відповісти