Кодер / Шифр / Cypher (2002) 720p Ukr/Eng | Sub Eng

Нові коментарі

Нова тема   Відповісти
Автор Повідомлення
Anonymous 







2018-08-31 05:41  
Кодер / Шифр / Cypher (2002) 720p Ukr/Eng | Sub Eng

Кодер / Шифр / Cypher (2002) 720p Ukr/Eng | Sub Eng


Жанр: містика, фантастика, трилер
Країна: США, Канада



Кінокомпанія: Pandora Cinema, Miramax Films, Gaylord Films
Режисер: Вінченцо Наталі (Vincenzo Natali)
Актори: Джеремі Нортам (Jeremy Northam), Люсі Лью (Lucy Liu), Найджел Беннет (Nigel Bennett), Тімоті Веббер (Timothy Webber) та інші

Сюжет:
Морґан Салліван, утомлений від занудного життя і нелюбимої дружини, охоче погоджується займатися шпигунством для могутньої корпорації «Діджікорп». Він отримує нове ім'я і просте завдання за допомогою секретного пристрою передавати виступи конкурентів на конвенціях по всій країні. Незважаючи на те, що почалися мігрені і дивна біль у потилиці, Морґан насолоджується новим, таємним життям, але випадкова зустріч із загадковою Рітою вселяє в нього страх і підозри. За словами Рити, нудні збори всього лише ширма для зловісних операцій «Діджікорпа», що перетворює своїх «шпигунів» на слухняних маріонеток, які втратили своє «я». Вона робить йому укол і просить на наступній конвенції ніяк не реагувати на те, що він там побачить ...


Тривалість: 01:35:39
Якість: 720p
Відео:
кодек:
розмір кадру: 1280х720
бітрейт: 6323 кб/с

Аудіо # 1:
мова: українська
переклад: двоголосий закадровий
кодек: 2.0
бітрейт: 192 кб/с

Аудіо # 2:
мова: англійська
переклад: оригінал
кодек: 5.1
бітрейт: 1509 кб/с

Субтитри:
мова: англійська
тип: програмні (м'які)
формат: *.srt
Info
General
Unique ID : 213433979640062065203606855405543483214 (0xA091E3A623F8F9EF95486057AE5DE74E)
Format :
Format version : Version 4 / Version 2
File size : 5.47 GiB
Duration : 1 h 35 min
Overall bit rate : 8 187 kb/s
Encoded date : UTC 2018-08-31 03:35:37
Writing application : v6.1.0 ('Old Devil') built on Mar 4 2013 09:10:42
Writing library : libebml v1.3.0 + v1.4.0

Video
ID : 1
Format : AVC
Format/Info : Advanced Video Codec
Format profile : [email protected]
Format settings : CABAC / 8 Ref Frames
Format settings, CABAC : Yes
Format settings, ReFrames : 8 frames
Codec ID : V_MPEG4/ISO/AVC
Duration : 1 h 35 min
Bit rate : 6 323 kb/s
Width : 1 280 pixels
Height : 720 pixels
Display aspect ratio : 16:9
Frame rate mode : Constant
Frame rate : 23.976 (24000/1001) FPS
Color space : YUV
Chroma subsampling : 4:2:0
Bit depth : 8 bits
Scan type : Progressive
Bits/(Pixel*Frame) : 0.286
Stream size : 4.23 GiB (77%)
Title : rip by [email protected]
Writing library : core 119 r2106 07efeb4
Encoding settings : cabac=1 / ref=8 / deblock=1:-3:-3 / analyse=0x3:0x113 / me=umh / subme=11 / psy=1 / psy_rd=1.00:0.00 / mixed_ref=1 / me_range=32 / chroma_me=1 / trellis=2 / 8x8dct=1 / cqm=0 / deadzone=21,11 / fast_pskip=1 / chroma_qp_offset=-2 / threads=6 / sliced_threads=0 / nr=0 / decimate=1 / interlaced=0 / bluray_compat=0 / constrained_intra=0 / bframes=11 / b_pyramid=2 / b_adapt=2 / b_bias=0 / direct=1 / weightb=1 / open_gop=0 / weightp=2 / keyint=250 / keyint_min=23 / scenecut=40 / intra_refresh=0 / rc_lookahead=40 / rc=crf / mbtree=0 / crf=18.0 / qcomp=0.60 / qpmin=0 / qpmax=51 / qpstep=4 / vbv_maxrate=40000 / vbv_bufsize=30000 / crf_max=0.0 / nal_hrd=none / ip_ratio=1.40 / pb_ratio=1.30 / aq=1:0.80
Language : English
Default : Yes
Forced : No
Color range : Limited
Matrix coefficients : BT.709

Audio #1
ID : 2
Format : AC-3
Format/Info : Audio Coding 3
Codec ID : A_AC3
Duration : 1 h 35 min
Bit rate mode : Constant
Bit rate : 192 kb/s
Channel(s) : 2 channels
Channel positions : Front: L R
Sampling rate : 48.0 kHz
Frame rate : 31.250 FPS (1536 SPF)
Bit depth : 16 bits
Compression mode : Lossy
Stream size : 131 MiB (2%)
Title : UKR (NLO-TV)
Language : Ukrainian
Service kind : Complete Main
Default : Yes
Forced : Yes

Audio #2
ID : 3
Format :
Format/Info : Digital Theater Systems
Codec ID : A_DTS
Duration : 1 h 35 min
Bit rate mode : Constant
Bit rate : 1 509 kb/s
Channel(s) : 6 channels
Channel positions : Front: L C R, Side: L R, LFE
Sampling rate : 48.0 kHz
Frame rate : 93.750 FPS (512 SPF)
Bit depth : 24 bits
Compression mode : Lossy
Stream size : 1.01 GiB (18%)
Language : English
Default : No
Forced : No

Text
ID : 4
Format : UTF-8
Codec ID : S_TEXT/UTF8
Codec ID/Info : UTF-8 Plain Text
Language : English
Default : No
Forced : No

Menu
00:00:00.000 : en:Digicorp
00:06:52.779 : en:First Spy Mission
00:13:34.080 : en:Meeting
00:17:32.885 : en:Flashes Of Pain
00:23:25.604 : en:Cypher
00:29:46.985 : en:Brainstorm
00:34:36.508 : en:Side Effects
00:40:22.387 : en:Sunways Systems
00:47:33.284 : en:Choices
00:53:55.599 : en:All About Trust
01:03:20.964 : en:Inside The Vault
01:12:45.127 : en:Escape
01:17:02.384 : en:Feeling Trapped
01:21:17.740 : en:Sebastian Rooks
01:28:35.744 : en:Deleted
01:31:08.096 : en:End Credits
Скріншоти








За українську доріжку подяка п. robotron005
Особиста подяка пану denixx за надану матеріальну допомогу на підтримку цього і майбутніх релізів.
Джерело:


Срібний реліз (на рейтинг впливає 50% завантаженого)
 Трекер:    Зареєстрований   

Завантажити / скачати фільм українською



відео для новачків



 Зареєстрований:   2018-08-31 05:41
 Розмір:   5.47 GB 
 Оцінка фільму:   10/10 (Голосів: 4)
   
Інші релізи
   Кодер / Шифр / Cypher (2002) Ukr/Eng robotron005  13 / 0   1.59 GB   2013-07-30 19:12 
Ваш часовий пояс: GMT + 2 Години

Нова тема   Відповісти