Вінні та Хобоступ / Pooh's Heffalump Movie (2005) 720p 2xUkr/Eng | Sub Eng

Нові коментарі

Нова тема   Відповісти
Автор Повідомлення
Anonymous 







2018-08-30 18:38  
Вінні та Хобоступ / Pooh's Heffalump Movie (2005) 720p 2xUkr/Eng | Sub Eng

Вінні та Хобоступ / Pooh's Heffalump Movie (2005) 720p 2xUkr/Eng | Sub Eng


Жанр: анімація, сімейний, фентезі, детектив
Країна: США



Кінокомпанія: Walt Disney Pictures, DisneyToon Studios
Режисер: Френк Ніссен / Frank Nissen
Актори: Джим Каммінгс / Jim Cummings, Джон Фідлер / John Fiedler, Нікіта Хопкінз / Nikita Hopkins, Кет Саусі / Kath Soucie, Кен Сансом / Ken Sansom, Пітер Каллен / Peter Cullen, Бренда Блетін / Brenda Blethyn, Кайл Стенджер / Kyle Stanger

Сюжет:
Вінні і його друзі - Паця, Кролик, Тигруля і Ру - ніколи ще так не були схвильовані. В їх рідному лісі стали відбуватися Дуже Дивні Речі. Чиї це великі сліди на узліссі? Хто там шарудить в кущах? Що за трубний звук лунає з хащі? Ой, це ж навпевно знаменитий слоножахливий і страшнотупаючий Хобоступ, якого всі бояться! Якщо Вінні і компанія хочуть, щоб їх ліс залишився тихим місцем, вони повинні, як би там не було, спіймати незваного гостя.
І ось герої сміливо (хоча трішки з дрижаками) відправляются на охоту за невідомим звіром, ще не знаючи, що зовсім не так страшний Хобоступ, як його малюють!..

Студія "Уолт Дісней" знову відкриває для вас двері в чарівну країну казок Олександра Мілна і запрошує розділити з Вінні і його друзями саму надзвичайну їх пригоду - грандіозне полювання на Хобоступа!


Тривалість: 01:07:57
Якість: 720p
Відео:
кодек:
розмір кадру: 1280х720
бітрейт: 4 050 кб/с

Аудіо # 1:
мова: українська
переклад: професійний дубльований ,
кодек: 2.0
бітрейт: 192 кб/с

Аудіо # 2:
мова: українська
переклад: багатоголосий закадровий
кодек: 2.0
бітрейт: 192 кб/с

Аудіо # 3:
мова: англійська
переклад: оригінал
кодек: 5.1
бітрейт: 384 кб/с

Субтитри:
мова: англійська
тип: програмні (м'які)
формат: *.srt
Info
General
Unique ID : 201725436816049082095939082219524433814 (0x97C2E7EB15C28F78AA4FA5D05BFFA796)
Format :
Format version : Version 4 / Version 2
File size : 2.33 GiB
Duration : 1 h 7 min
Overall bit rate : 4 916 kb/s
Encoded date : UTC 2018-08-30 16:28:28
Writing application : v6.1.0 ('Old Devil') built on Mar 4 2013 09:10:42
Writing library : libebml v1.3.0 + v1.4.0

Video
ID : 1
Format : AVC
Format/Info : Advanced Video Codec
Format profile : [email protected]
Format settings : CABAC / 16 Ref Frames
Format settings, CABAC : Yes
Format settings, ReFrames : 16 frames
Format settings, GOP : N=1
Codec ID : V_MPEG4/ISO/AVC
Duration : 1 h 7 min
Bit rate : 4 050 kb/s
Width : 1 280 pixels
Height : 720 pixels
Display aspect ratio : 16:9
Frame rate mode : Constant
Frame rate : 23.976 (24000/1001) FPS
Color space : YUV
Chroma subsampling : 4:2:0
Bit depth : 8 bits
Scan type : Progressive
Bits/(Pixel*Frame) : 0.183
Stream size : 1.92 GiB (82%)
Language : English
Default : Yes
Forced : No

Audio #1
ID : 2
Format : AC-3
Format/Info : Audio Coding 3
Codec ID : A_AC3
Duration : 1 h 7 min
Bit rate mode : Constant
Bit rate : 192 kb/s
Channel(s) : 2 channels
Channel positions : Front: L R
Sampling rate : 48.0 kHz
Frame rate : 31.250 FPS (1536 SPF)
Bit depth : 16 bits
Compression mode : Lossy
Stream size : 93.3 MiB (4%)
Title : UKR (1+1, Cine+)
Language : Ukrainian
Service kind : Complete Main
Default : Yes
Forced : Yes

Audio #2
ID : 3
Format : AC-3
Format/Info : Audio Coding 3
Codec ID : A_AC3
Duration : 1 h 7 min
Bit rate mode : Constant
Bit rate : 192 kb/s
Channel(s) : 2 channels
Channel positions : Front: L R
Sampling rate : 48.0 kHz
Frame rate : 31.250 FPS (1536 SPF)
Bit depth : 16 bits
Compression mode : Lossy
Stream size : 93.3 MiB (4%)
Title : UKR (ТРК "Україна")
Language : Ukrainian
Service kind : Complete Main
Default : No
Forced : No

Audio #3
ID : 4
Format : AC-3
Format/Info : Audio Coding 3
Codec ID : A_AC3
Duration : 1 h 7 min
Bit rate mode : Constant
Bit rate : 384 kb/s
Channel(s) : 6 channels
Channel positions : Front: L C R, Side: L R, LFE
Sampling rate : 48.0 kHz
Frame rate : 31.250 FPS (1536 SPF)
Bit depth : 16 bits
Compression mode : Lossy
Stream size : 187 MiB (8%)
Title : ENG
Language : English
Service kind : Complete Main
Default : No
Forced : No

Text
ID : 5
Format : UTF-8
Codec ID : S_TEXT/UTF8
Codec ID/Info : UTF-8 Plain Text
Language : English
Default : No
Forced : No
Скріншоти





За українську доріжку №1 подяка п.: Technomate, xslim, Sando7, karvai0
За українську доріжку №2 подяка п.: Merdiff, karvai0
За постер подяка п. DDBj
Особиста подяка пану denixx за надану матеріальну допомогу на підтримку цього і майбутніх релізів.
Джерело:


 Трекер:    Зареєстрований   

Завантажити / скачати мультфільм українською



відео для новачків



 Зареєстрований:   2018-08-30 18:38
 Розмір:   2.33 GB 
 Оцінка мультфільму:   8.7/10 (Голосів: 7)
   
Інші релізи
Ваш часовий пояс: GMT + 2 Години

Нова тема   Відповісти