Гладіатор [Розширена версія] / Gladiator [Extended Cut] (2000) UHD 4K-mini 2160p HDR H.265 Ukr/Eng | Sub Eng

Нові коментарі

Нова тема   Відповісти
Автор Повідомлення
Babamin 
Частий відвідувач


З нами з: 29.12.15
Востаннє: 15.10.18
Повідомлень: 45

2018-08-29 23:40  
Гладіатор [Розширена версія] / Gladiator [Extended Cut] (2000) UHD 4K-mini 2160p HDR H.265 Ukr/Eng | Sub Eng


Гладіатор [Розширена версія] / Gladiator [Extended Cut] (2000) UHD 4K-mini 2160p HDR H.265 Ukr/Eng | Sub Eng
Оригінальна обкладинка:

«Генерал, який став рабом. Раб, який став гладіатором. Гладіатор, який кинув виклик імперії.»



Жанр: бойовик, драма, історичний, пригодницький
Країна: США, Велика Британія



Кінокомпанія: DreamWorks SKG, Scott Free Productions, Universal Pictures
Режисер: Рідлі Скотт
Актори: Рассел Кроу, Хоакін Фенікс, Конні Нільсен, Олівер Рід, Річард Гарріс, Дерек Джекоб, Джимон Хунсу, Девід Скофілд, Джон Шрепнел, Томас Гарана

Сюжет:
У великій Римській імперії не було воєначальника, рівного Максимусу. Непереможні легіони, якими командував цей благородний воїн, обожнювали його і могли піти з ним навіть у пекло.
Але сталося так, що відважний Максимус, готовий битися з будь-яким супротивником в чесному бою, опинився безсилий проти віроломних придворних інтриг. Генерала зрадили і засудили до смерті. Дивом уникнувши загибелі, Максимус стає гладіатором.
Швидко здобувши собі славу в кривавих поєдинках, він опиняється в знаменитому римському Колізеї, де на його арені він зустрінеться, в смертельній сутичці, зі своїм запеклим ворогом ...


Тривалість: 02:50:56 [Розширена версія] - порівняння з театральною версією
Якість: UltraHD 4K-mini 2160p
Контейнер:

Відео:
кодек: H.265
розмір кадру: 3840 х 1600
бітрейт: 18,6 Мб/с
бітова глибина: 10 біт
кольоровий простір: BT.2020 (HDR)

Аудіо # 1:
мова: українська
переклад: багатоголосий закадровий
кодек: 5.1
бітрейт: 448 кб/с
примітка: присутні місця без перекладу, до них є субтитри

Аудіо # 2:
мова: англійська
переклад: оригінал
кодек: -X 7.1
бітрейт: 3840 кб/с

Субтитри # 1:
мова: українська (форсовані, до моментів без перекладу)
тип: програмні (м'які)
формат: *.srt

Субтитри # 2-4:
мова: англійська (повні, SDH, коментар)
тип: програмні (м'які)
формат: *.srt
Info:
General
Complete name : Gladiator.EC.(2000).UHD.HDR..HEVC.4K.2160p-Toloka.
Format :
Format version : Version 4 / Version 2
File size : 27.3 GiB
Duration : 2 h 50 min
Overall bit rate : 22.9 Mb/s
Movie name : Гладіатор [Розширена версія] / Gladiator [Extended Cut] (2000) HEVC HDR10 UHD- 2160p
Encoded date : UTC 2018-08-29 19:54:42
Writing application : v25.0.0 ('Prog Noir') 64-bit
Writing library : libebml v1.3.6 + v1.4.9

Video
ID : 1
Format : HEVC
Format/Info : High Efficiency Video Coding
Commercial name : HDR10
Format profile : Main [email protected]@High
Codec ID : V_MPEGH/ISO/HEVC
Duration : 2 h 50 min
Bit rate : 18.6 Mb/s
Width : 3 840 pixels
Height : 1 600 pixels
Display aspect ratio : 2.40:1
Frame rate mode : Constant
Frame rate : 23.976 (24000/1001) FPS
Color space : YUV
Chroma subsampling : 4:2:0 (Type 2)
Bit depth : 10 bits
Bits/(Pixel*Frame) : 0.126
Stream size : 22.2 GiB (81%)
Title : Gladiator.EC.(2000).UHD.HDR..HEVC.4K.2160p-Toloka.
Writing library : x265 2.8+66-88ee12651e30:[Windows][MSVC 1915][64 bit] 10bit
Encoding settings : cpuid=1111039 / frame-threads=3 / numa-pools=12 / wpp / no-pmode / no-pme / no-psnr / no-ssim / log-level=2 / input-csp=1 / input-res=3840x1600 / interlace=0 / total-frames=245910 / level-idc=51 / high-tier=1 / uhd-bd=0 / ref=4 / no-allow-non-conformance / repeat-headers / annexb / no-aud / no-hrd / info / hash=0 / no-temporal-layers / no-open-gop / min-keyint=24 / keyint=240 / gop-lookahead=0 / bframes=16 / b-adapt=2 / b-pyramid / bframe-bias=0 / rc-lookahead=128 / lookahead-slices=4 / scenecut=40 / radl=0 / no-intra-refresh / ctu=64 / min-cu-size=8 / no-rect / no-amp / max-tu-size=32 / tu-inter-depth=1 / tu-intra-depth=1 / limit-tu=0 / rdoq-level=2 / dynamic-rd=0.00 / no-ssim-rd / signhide / no-tskip / nr-intra=0 / nr-inter=0 / no-constrained-intra / no-strong-intra-smoothing / max-merge=5 / limit-refs=3 / limit-modes / me=3 / subme=7 / merange=57 / temporal-mvp / weightp / weightb / no-analyze-src-pics / deblock=0:0 / no-sao / no-sao-non-deblock / rd=4 / no-early-skip / no-rskip / no-fast-intra / no-tskip-fast / no-cu-lossless / no-b-intra / no-splitrd-skip / rdpenalty=0 / psy-rd=2.25 / psy-rdoq=2.75 / no-rd-refine / no-lossless / cbqpoffs=0 / crqpoffs=0 / rc=crf / crf=22.0 / qcomp=0.70 / qpstep=4 / stats-write=0 / stats-read=0 / vbv-maxrate=160000 / vbv-bufsize=160000 / vbv-init=0.9 / crf-max=0.0 / crf-min=0.0 / ipratio=1.30 / pbratio=1.10 / aq-mode=0 / aq-strength=0.00 / no-cutree / zone-count=1 / zones: / start-frame=236050 / end-frame=245910 / qp=36 / no-strict-cbr / qg-size=32 / no-rc-grain / qpmax=69 / qpmin=0 / no-const-vbv / sar=1 / overscan=0 / videoformat=5 / range=0 / colorprim=9 / transfer=16 / colormatrix=9 / chromaloc=1 / chromaloc-top=2 / chromaloc-bottom=2 / display-window=0 / master-display=G(13250,34500)B(7500,3000)R(34000,16000)WP(15635,16450)L(10000000,50) / max-cll=1000,497 / min-luma=0 / max-luma=1023 / log2-max-poc-lsb=8 / vui-timing-info / vui-hrd-info / slices=1 / no-opt-qp-pps / no-opt-ref-list-length-pps / no-multi-pass-opt-rps / scenecut-bias=0.05 / no-opt-cu-delta-qp / no-aq-motion / hdr / hdr-opt / no-dhdr10-opt / no-idr-recovery-sei / analysis-reuse-level=5 / scale-factor=0 / refine-intra=0 / refine-inter=0 / refine-mv=0 / no-limit-sao / ctu-info=0 / no-lowpass-dct / refine-mv-type=0 / copy-pic=1 / max-ausize-factor=1.0 / no-dynamic-refine / no-single-sei
Default : Yes
Forced : No
Color range : Limited
Color primaries : BT.2020
Transfer characteristics : PQ
Matrix coefficients : BT.2020 non-constant
Mastering display color primaries : Display P3
Mastering display luminance : min: 0.0050 cd/m2, max: 1000 cd/m2
Maximum Content Light Level : 1000 cd/m2
Maximum Frame-Average Light Level : 497 cd/m2

Audio #1
ID : 2
Format : AC-3
Format/Info : Audio Coding 3
Codec ID : A_AC3
Duration : 2 h 50 min
Bit rate mode : Constant
Bit rate : 448 kb/s
Channel(s) : 6 channels
Channel positions : Front: L C R, Side: L R, LFE
Sampling rate : 48.0 kHz
Frame rate : 31.250 FPS (1536 SPF)
Bit depth : 16 bits
Compression mode : Lossy
Stream size : 548 MiB (2%)
Title : MVO [ICTV]
Language : Ukrainian
Service kind : Complete Main
Default : Yes
Forced : No

Audio #2
ID : 3
Format :
Format/Info : Digital Theater Systems
Format profile : X / MA / Core
Codec ID : A_DTS
Duration : 2 h 50 min
Bit rate mode : Variable / Variable / Constant
Bit rate : 3 840 kb/s / 3 840 kb/s / 1 509 kb/s
Channel(s) : Object Based / 8 channels / 6 channels
Channel positions : Object Based / Front: L C R, Side: L R, Back: L R, LFE / Front: L C R, Side: L R, LFE
Sampling rate : / 48.0 kHz / 48.0 kHz
Frame rate : 93.750 FPS (512 SPF)
Bit depth : / 24 bits / 24 bits
Compression mode : / Lossless / Lossy
Stream size : 4.56 GiB (17%)
Title : UHD
Language : English
Default : No
Forced : No

Text #1
ID : 4
Format : UTF-8
Codec ID : S_TEXT/UTF8
Codec ID/Info : UTF-8 Plain Text
Duration : 2 h 45 min
Bit rate : 5 b/s
Count of elements : 137
Stream size : 7.00 KiB (0%)
Title : forced
Language : Ukrainian
Default : Yes
Forced : Yes

Text #2
ID : 5
Format : UTF-8
Codec ID : S_TEXT/UTF8
Codec ID/Info : UTF-8 Plain Text
Duration : 2 h 41 min
Bit rate : 36 b/s
Count of elements : 1453
Stream size : 43.3 KiB (0%)
Title : full
Language : English
Default : No
Forced : No

Text #3
ID : 6
Format : UTF-8
Codec ID : S_TEXT/UTF8
Codec ID/Info : UTF-8 Plain Text
Duration : 2 h 41 min
Bit rate : 38 b/s
Count of elements : 1626
Stream size : 45.5 KiB (0%)
Title : SDH
Language : English
Default : No
Forced : No

Text #4
ID : 7
Format : UTF-8
Codec ID : S_TEXT/UTF8
Codec ID/Info : UTF-8 Plain Text
Duration : 2 h 44 min
Bit rate : 110 b/s
Count of elements : 2463
Stream size : 133 KiB (0%)
Title : Commentary with director Ridley Scott, director of photography John Mathieson & editor Pietro Scalia
Language : English
Default : No
Forced : No

Menu
00:00:00.000 : en:Chapter 1
00:07:13.307 : en:Chapter 2
00:12:50.102 : en:Chapter 3
00:18:44.790 : en:Chapter 4
00:23:29.324 : en:Chapter 5
00:32:58.393 : en:Chapter 6
00:37:34.877 : en:Chapter 7
00:40:50.739 : en:Chapter 8
00:47:32.724 : en:Chapter 9
00:51:35.842 : en:Chapter 10
00:55:44.382 : en:Chapter 11
01:02:21.279 : en:Chapter 12
01:09:56.984 : en:Chapter 13
01:19:08.285 : en:Chapter 14
01:29:21.647 : en:Chapter 15
01:37:11.784 : en:Chapter 16
01:41:35.797 : en:Chapter 17
01:51:58.836 : en:Chapter 18
01:56:36.280 : en:Chapter 19
02:00:43.486 : en:Chapter 20
02:04:42.224 : en:Chapter 21
02:12:19.014 : en:Chapter 22
02:13:32.671 : en:Chapter 23
02:24:15.438 : en:Chapter 24
02:28:48.669 : en:Chapter 25
02:34:20.751 : en:Chapter 26
02:38:43.555 : en:Chapter 27
02:42:57.725 : en:Chapter 28
Скріншоти:








Джерело: &


Срібний реліз (на рейтинг впливає 50% завантаженого)
 Трекер:    Зареєстрований   

Завантажити / скачати фільм українською



відео для новачків



 Зареєстрований:   2018-08-29 23:40
 Розмір:   27.31 GB 
 Оцінка фільму:   10/10 (Голосів: 6)
   
Ваш часовий пояс: GMT + 2 Години

Нова тема   Відповісти