Борг (Розплата) / The Debt (2010) 1080p 2xUkr/Eng | Sub Ukr/Eng

Нові коментарі

Нова тема   Відповісти
Автор Повідомлення
Anonymous 







2018-08-29 21:01  
Борг (Розплата) / The Debt (2010) 1080p 2xUkr/Eng | Sub Ukr/Eng

Борг (Розплата) / The Debt (2010) 1080p 2xUkr/Eng | Sub Ukr/Eng
Альтернативний український постер:



Жанр: драма, трилер
Країна: США, Велика Британія, Угорщина, Ізраїль



Кінокомпанія: Miramax, Marv Films, Pioneer Pictures
Режисер: Джон Медден
Актори: Гелен Міррен, Том Вілкінсон, Джессіка Честейн, Сем Вортінґтон, Кьяран Гайндс, Ромі Абулафія, Томер Бен Девід, Огев Бен Девід, Джонатан Узіл, Елі Зохар, Ірен Бордан

Сюжет:
У фільмі розповідається про трьох молодих агентів «Моссада» на секретному завданні, які в 1965 році викрадають і вбивають відомого нацистського злочинця. Тридцять років потому в Україні з'являється людина, обвинувачена у нацизмі, і одному з колишніх агентів доводиться повернутися до своєї діяльності, щоб докопатися до правди.


Тривалість: 01:53:23
Якість: 1080p
Відео:
кодек:
розмір кадру: 1920х800
бітрейт: 11,9 Мб/с

Аудіо # 1:
мова: українська
переклад: багатоголосий закадровий
кодек: 2.0
бітрейт: 192 кб/с

Аудіо # 2:
мова: українська
переклад: багатоголосий закадровий
кодек: 2.0
бітрейт: 192 кб/с

Аудіо # 3:
мова: англійська
переклад: оригінал
кодек: 5.1
бітрейт: 1509 кб/с

Субтитри:
мова: українська
тип: програмні (м'які)
формат: *.srt

Субтитри:
мова: англійська
тип: програмні (м'які)
формат: *.srt
Info
General
Unique ID : 234327642073874136469978676043358639275 (0xB049DCBD83E5D416A33B856D5BC794AB)
Format :
Format version : Version 4 / Version 2
File size : 11.1 GiB
Duration : 1 h 53 min
Overall bit rate : 14.1 Mb/s
Encoded date : UTC 2018-08-29 18:52:10
Writing application : v6.1.0 ('Old Devil') built on Mar 4 2013 09:10:42
Writing library : libebml v1.3.0 + v1.4.0

Video
ID : 1
Format : AVC
Format/Info : Advanced Video Codec
Format profile : [email protected]
Format settings : CABAC / 12 Ref Frames
Format settings, CABAC : Yes
Format settings, ReFrames : 12 frames
Codec ID : V_MPEG4/ISO/AVC
Duration : 1 h 53 min
Bit rate : 11.9 Mb/s
Width : 1 920 pixels
Height : 800 pixels
Display aspect ratio : 2.40:1
Frame rate mode : Constant
Frame rate : 23.976 (24000/1001) FPS
Color space : YUV
Chroma subsampling : 4:2:0
Bit depth : 8 bits
Scan type : Progressive
Bits/(Pixel*Frame) : 0.323
Stream size : 9.42 GiB (85%)
Writing library : core 116 r2019 9cc407d
Encoding settings : cabac=1 / ref=12 / deblock=1:-3:-3 / analyse=0x3:0x133 / me=umh / subme=9 / psy=1 / psy_rd=1.15:0.14 / mixed_ref=1 / me_range=16 / chroma_me=1 / trellis=2 / 8x8dct=1 / cqm=0 / deadzone=21,11 / fast_pskip=0 / chroma_qp_offset=-3 / threads=12 / sliced_threads=0 / nr=0 / decimate=0 / interlaced=0 / bluray_compat=0 / constrained_intra=0 / bframes=8 / b_pyramid=2 / b_adapt=2 / b_bias=0 / direct=3 / weightb=1 / open_gop=0 / weightp=2 / keyint=250 / keyint_min=23 / scenecut=40 / intra_refresh=0 / rc=crf / mbtree=0 / crf=17.2 / qcomp=0.60 / qpmin=10 / qpmax=51 / qpstep=4 / ip_ratio=1.40 / pb_ratio=1.30 / aq=1:0.60
Language : English
Default : Yes
Forced : No

Audio #1
ID : 2
Format : AC-3
Format/Info : Audio Coding 3
Codec ID : A_AC3
Duration : 1 h 53 min
Bit rate mode : Constant
Bit rate : 192 kb/s
Channel(s) : 2 channels
Channel positions : Front: L R
Sampling rate : 48.0 kHz
Frame rate : 31.250 FPS (1536 SPF)
Bit depth : 16 bits
Compression mode : Lossy
Stream size : 156 MiB (1%)
Title : UKR (Cine+)
Language : Ukrainian
Service kind : Complete Main
Default : Yes
Forced : Yes

Audio #2
ID : 3
Format : AC-3
Format/Info : Audio Coding 3
Codec ID : A_AC3
Duration : 1 h 53 min
Bit rate mode : Constant
Bit rate : 192 kb/s
Channel(s) : 2 channels
Channel positions : Front: L R
Sampling rate : 48.0 kHz
Frame rate : 31.250 FPS (1536 SPF)
Bit depth : 16 bits
Compression mode : Lossy
Stream size : 156 MiB (1%)
Title : UKR (NLO-TV)
Language : Ukrainian
Service kind : Complete Main
Default : No
Forced : No

Audio #3
ID : 4
Format :
Format/Info : Digital Theater Systems
Codec ID : A_DTS
Duration : 1 h 53 min
Bit rate mode : Constant
Bit rate : 1 509 kb/s
Channel(s) : 6 channels
Channel positions : Front: L C R, Side: L R, LFE
Sampling rate : 48.0 kHz
Frame rate : 93.750 FPS (512 SPF)
Bit depth : 24 bits
Compression mode : Lossy
Stream size : 1.20 GiB (11%)
Title : Original
Language : English
Default : No
Forced : No

Text #1
ID : 5
Format : UTF-8
Codec ID : S_TEXT/UTF8
Codec ID/Info : UTF-8 Plain Text
Title : UKR
Language : Ukrainian
Default : Yes
Forced : No

Text #2
ID : 6
Format : UTF-8
Codec ID : S_TEXT/UTF8
Codec ID/Info : UTF-8 Plain Text
Title : English
Language : English
Default : No
Forced : No
Скріншоти





За укр. доріжки подяка п.: slavik_v_z, xslim, Sando7, POMEO, Gelios, за постери - п.Gelios'у.
Особиста подяка пану denixx за надану матеріальну допомогу на підтримку цього і майбутніх релізів.
Джерело:


 Трекер:    Зареєстрований   

Завантажити / скачати фільм українською



відео для новачків



 Зареєстрований:   2018-08-29 21:01
 Розмір:   11.14 GB 
 Оцінка фільму:   9.7/10 (Голосів: 7)
   
Інші релізи
   Розплата (Борг) / The Debt (2010) Remux 1080p 2xUkr/Eng | Sub Ukr/Eng kryk-v.ya.  3 / 0   27.81 GB   2018-11-24 17:40 
   Розплата / The Debt (2010) Ukr/Eng | Sub Ukr/Eng Gelios  2 / 0   1.45 GB   2015-11-29 21:44 
   Борг (Розплата) / The Debt (2010) 720p Eng | Sub Ukr/Eng Dim-ON  2 / 0   4.92 GB   2012-02-25 13:43 
vovik_1 
Новенький


З нами з: 03.10.10
Востаннє: 09.12.18
Повідомлень: 2

2018-09-01 23:12  
Цікавий фільм.
Ваш часовий пояс: GMT + 2 Години

Нова тема   Відповісти