Швидкий вогонь / Rapid Fire (1992) 1080p 2хUkr/Eng | Sub Eng

Нові коментарі

Нова тема   Відповісти
Автор Повідомлення
Anonymous 







2018-08-29 17:41  
Швидкий вогонь / Rapid Fire (1992) 1080p 2хUkr/Eng | Sub Eng

Швидкий вогонь / Rapid Fire (1992) 1080p 2хUkr/Eng | Sub Eng


Жанр: бойовик, кримінальний, драма, трилер
Країна: США



Кінокомпанія: Twentieth Century Fox Film Corporation
Режисер: Двайт Літтл (Dwight H. Little)
Актори: Брендон Лі (Brandon Lee), Паверс Бут (Powers Boothe), Нікк Манкузо (Nick Mancuso), Реймонд Беррі (Raymond J. Barry), Кейт Годж (Kate Hodge) та інші

Сюжет:
Студент Джейк Ло стає свідком жорстокого вбивства. Не думаючи про те, хто стоїть за спиною вбивць, він погоджується свідчити в суді, і тут же чиїсь люди під виглядом агентів ФБР намагаються прибрати його. Ледве вислизнувши від лже-агентів, Джейк виявляється в центрі ураганної сутички за його голову.
ФБР, наркобарони, друзі, вороги - все змішалося, і невідомо, хто несе смерть, а хто - допомога. Тут можуть врятувати тільки інстинкти. І інстинкт підказує, що єдиний, кому можна вірити - офіцер поліції Райан. Але єдине, що може запропонувати Райан - зіграти підсадну качку в його полюванні.


Тривалість: 01:35:13
Якість: 1080p
Відео:
кодек:
розмір кадру: 1920х1040
бітрейт: 10,5 Мб/с

Аудіо # 1:
мова: українська
переклад: двоголосий закадровий ,
кодек: 2.0
бітрейт: 192 кб/с

Аудіо # 2:
мова: українська
переклад: багатоголосий закадровий
кодек: 2.0
бітрейт: 192 кб/с

Аудіо # 3:
мова: англійська
переклад: оригінал
кодек: 2.0
бітрейт: 1451 кб/с

Субтитри:
мова: англійська
тип: програмні (м'які)
формат: *.srt
Info
General
Unique ID : 225412277088785762705204130657228548443 (0xA994D34F3C2A9CEEB2F4D4B2A383E95B)
Format :
Format version : Version 4 / Version 2
File size : 8.19 GiB
Duration : 1 h 35 min
Overall bit rate mode : Variable
Overall bit rate : 12.3 Mb/s
Encoded date : UTC 2018-08-29 14:50:33
Writing application : v6.1.0 ('Old Devil') built on Mar 4 2013 09:10:42
Writing library : libebml v1.3.0 + v1.4.0

Video
ID : 1
Format : AVC
Format/Info : Advanced Video Codec
Format profile : [email protected]
Format settings : CABAC / 4 Ref Frames
Format settings, CABAC : Yes
Format settings, ReFrames : 4 frames
Codec ID : V_MPEG4/ISO/AVC
Duration : 1 h 35 min
Nominal bit rate : 10.5 Mb/s
Width : 1 920 pixels
Height : 1 040 pixels
Display aspect ratio : 1.85:1
Frame rate mode : Constant
Frame rate : 23.976 (24000/1001) FPS
Color space : YUV
Chroma subsampling : 4:2:0
Bit depth : 8 bits
Scan type : Progressive
Bits/(Pixel*Frame) : 0.219
Writing library : core 155 r2901 7d0ff22
Encoding settings : cabac=1 / ref=4 / deblock=1:-3:-3 / analyse=0x3:0x113 / me=umh / subme=8 / psy=1 / psy_rd=1.00:0.25 / mixed_ref=1 / me_range=24 / chroma_me=1 / trellis=1 / 8x8dct=1 / cqm=0 / deadzone=21,11 / fast_pskip=1 / chroma_qp_offset=-4 / threads=30 / lookahead_threads=5 / sliced_threads=0 / nr=0 / decimate=1 / interlaced=0 / bluray_compat=0 / constrained_intra=0 / bframes=3 / b_pyramid=2 / b_adapt=1 / b_bias=0 / direct=3 / weightb=1 / open_gop=0 / weightp=2 / keyint=240 / keyint_min=24 / scenecut=40 / intra_refresh=0 / rc_lookahead=50 / rc=2pass / mbtree=1 / bitrate=10483 / ratetol=1.0 / qcomp=0.60 / qpmin=0 / qpmax=69 / qpstep=4 / cplxblur=20.0 / qblur=0.5 / ip_ratio=1.40 / aq=1:0.75
Default : Yes
Forced : No
Statistics Tags Issue : v25.0.0 ('Prog Noir') 64-bit 2018-08-23 22:17:16 / v6.1.0 ('Old Devil') built on Mar 4 2013 09:10:42 2018-08-29 14:50:33
FromStats_BitRate : 10477131
FromStats_Duration : 01:35:12.749000000
FromStats_FrameCount : 136969
FromStats_StreamSize : 7481652918

Audio #1
ID : 2
Format : AC-3
Format/Info : Audio Coding 3
Codec ID : A_AC3
Duration : 1 h 35 min
Bit rate mode : Constant
Bit rate : 192 kb/s
Channel(s) : 2 channels
Channel positions : Front: L R
Sampling rate : 48.0 kHz
Frame rate : 31.250 FPS (1536 SPF)
Bit depth : 16 bits
Compression mode : Lossy
Stream size : 131 MiB (2%)
Title : UKR (1+1, 2+2)
Language : Ukrainian
Service kind : Complete Main
Default : Yes
Forced : Yes

Audio #2
ID : 3
Format : AC-3
Format/Info : Audio Coding 3
Codec ID : A_AC3
Duration : 1 h 35 min
Bit rate mode : Constant
Bit rate : 192 kb/s
Channel(s) : 2 channels
Channel positions : Front: L R
Sampling rate : 48.0 kHz
Frame rate : 31.250 FPS (1536 SPF)
Bit depth : 16 bits
Compression mode : Lossy
Stream size : 131 MiB (2%)
Title : UKR (ICTV)
Language : Ukrainian
Service kind : Complete Main
Default : No
Forced : No

Audio #3
ID : 4
Format :
Format/Info : Free Lossless Audio Codec
Codec ID : A_FLAC
Duration : 1 h 35 min
Bit rate mode : Variable
Channel(s) : 2 channels
Channel positions : Front: L R
Sampling rate : 48.0 kHz
Bit depth : 24 bits
Writing library : libFLAC 1.2.1 (UTC 2007-09-17)
Language : English
Default : No
Forced : No
Statistics Tags Issue : v25.0.0 ('Prog Noir') 64-bit 2018-08-23 22:17:16 / v6.1.0 ('Old Devil') built on Mar 4 2013 09:10:42 2018-08-29 14:50:33
FromStats_BitRate : 1451526
FromStats_Duration : 01:35:12.746000000
FromStats_FrameCount : 66947
FromStats_StreamSize : 1036525147

Text
ID : 5
Format : UTF-8
Codec ID : S_TEXT/UTF8
Codec ID/Info : UTF-8 Plain Text
Title : ENG
Language : English
Default : Yes
Forced : No

Menu
00:00:00.000 : en:00:00:00.000
00:03:51.982 : en:00:03:51.982
00:07:57.477 : en:00:07:57.477
00:11:59.093 : en:00:11:59.093
00:15:47.613 : en:00:15:47.613
00:20:51.792 : en:00:20:51.792
00:24:02.733 : en:00:24:02.733
00:26:50.901 : en:00:26:50.901
00:31:42.025 : en:00:31:42.025
00:37:58.610 : en:00:37:58.610
00:39:36.207 : en:00:39:36.207
00:43:45.456 : en:00:43:45.456
00:47:26.927 : en:00:47:26.927
00:50:03.751 : en:00:50:03.751
00:55:01.048 : en:00:55:01.048
01:00:34.881 : en:01:00:34.881
01:03:10.704 : en:01:03:10.704
01:07:32.048 : en:01:07:32.048
01:11:23.362 : en:01:11:23.362
01:15:33.070 : en:01:15:33.070
01:20:46.759 : en:01:20:46.759
01:23:49.900 : en:01:23:49.900
01:27:22.404 : en:01:27:22.404
01:30:50.570 : en:01:30:50.570
Скріншоти









За українські доріжки подяка п. SweetN, robotron005
За постер подяка п. Тирік
Особиста подяка пану denixx за надану матеріальну допомогу на підтримку цього і майбутніх релізів.
Джерело:


Срібний реліз (на рейтинг впливає 50% завантаженого)
 Трекер:    Зареєстрований   

Завантажити / скачати фільм українською



відео для новачків



 Зареєстрований:   2018-08-29 17:41
 Розмір:   8.19 GB 
 Оцінка фільму:   9/10 (Голосів: 2)
   
Інші релізи
+380954897458 
Свій


З нами з: 02.06.17
Востаннє: 10.12.18
Повідомлень: 98

2018-09-01 20:12  
Чудовий олдскульський бойовик. Дуже люблю. Як завжди, до сліз шкода Брендона.
+380954897458 
Свій


З нами з: 02.06.17
Востаннє: 10.12.18
Повідомлень: 98

2018-09-05 14:09  
Чомусь нема родачі. Люди, агов!
Mitchell74 
Новенький


З нами з: 01.01.18
Востаннє: 26.11.18
Повідомлень: 2

2018-10-26 01:53  
Станьте на роздачу, будь ласка!!!!!
А ще краще буде мабуть зробити ріп меншого розміру, бо занадто вже великий об'єм

EvGaS 
Відео Гуртом - субтитрування
Відео Гуртом - субтитрування


З нами з: 27.02.12
Востаннє: 08.12.18
Повідомлень: 5086

2018-10-26 04:10  
Mitchell74 написано:

Станьте на роздачу, будь ласка!!!!!
А ще краще буде мабуть зробити ріп меншого розміру, бо занадто вже великий об'єм

Є кнопка «Інші релізи», також варто спочатку спробувати скористуватись пошуком:
https://toloka.to/tracker.php?nm=Rapid+Fire

Mitchell74 
Новенький


З нами з: 01.01.18
Востаннє: 26.11.18
Повідомлень: 2

2018-10-26 16:54  
Так то воно є так, але маю цей фільм у меншому розмірі за об'ємом, просто хочу до нього приєднати наші
доріжки. У ідеалі звісно було б, якби виложили наші доріжки окремо.

Ваш часовий пояс: GMT + 2 Години

Нова тема   Відповісти