У пошуках Дорi / Finding Dory (2016) mini 1080p H.265 Ukr/Eng | Sub Eng

Нові коментарі

Нова тема   Відповісти
Автор Повідомлення
ukr_anonymous 
Попереджень: 1
Попереджень: 1 


З нами з: 16.04.18
Востаннє: 17.11.19
Повідомлень: 234

2018-08-29 10:18  
У пошуках Дорi / Finding Dory (2016) mini 1080p H.265 Ukr/Eng | Sub Eng

У пошуках Дорi / Finding Dory (2016) mini 1080p H.265 Ukr/Eng | Sub Eng


Жанр: анімація, комедія, пригодницький, сімейний
Країна: США



Кінокомпанія: Pixar Animation Studios, Walt Disney Pictures
Режисер: Ендрю Стентон / Andrew Stanton, Енгус МакЛейн / Angus MacLane
Актори: Еллен ДеДженерес, Альберт Брукс, Ідріс Ельба, Дайана Кітон, Кейт МакКіннон, Домінік Вест та інші

Сюжет:
Продовження мультфільму про рибу-клоуна та інших мешканців підводного світу "У пошуках Немо". Події відбуваються через рік після першої частини. Подруга Немо, риба-хірург Дорі, яка страждає провалами в пам'яті, раптово згадує своє дитинство. Вона стає одержима ідеєю знайти свою родину і відправляється у подорож разом з Немо та Марліном. Друзі відвідують Монтерейський інститут морського життя, де зустрічають китову акулу Дестіні, білуху Бейлі та восьминога Генка. Останній стане важливою ланкою у пошуках Дорі.
Анімаційний пригодницький фільм від дворазового лауреата Оскара Ендрю Стентона, творця "В пошуках Немо", "Волл-І" та ін.


Тривалість: 01:37:03
Якість:
Відео:
кодек: H.265 (HEVC)
розмір кадру: 1920 x 1080
бітрейт: 5 009 кб/с
бітова глибина: 10 біт
Увага! Перед завантаженням переконайтесь, що ваш пристрій відтворення (та/або ПЗ) підтримує H.265 (HEVC)

Аудіо # 1:
мова: українська
переклад: професійний дубльований
кодек: 5.1
бітрейт: 1 509 кб/с

Аудіо # 2:
мова: англійська
переклад: оригінал
кодек: 5.1
бітрейт: 448 кб/с

Субтитри # 1-2:
мова: англійська (Full, SDH)
тип: програмні (м'які)
формат: *.srt
Info
Код:
General
Unique ID                                : 332085243296150920571155743996454719960 (0xF9D54A9A31BB587E96AD043AB1A151D8)
Complete name                            : E:\Video\Finding Dory (2016) 1080p H.265 [UKR_ENG].
Format                                   :
Format version                           : Version 4 / Version 2
File size                                : 4.72 GiB
Duration                                 : 1 h 37 min
Overall bit rate                         : 6 969 kb/s
Movie name                               : Finding Dory (2016)
Encoded date                             : UTC 2018-08-28 08:59:31
Writing application                      : v20.0.0 ('I Am The Sun') 32-bit
Writing library                          : libebml v1.3.5 + v1.4.8
Cover                                    : Yes
Attachments                              : cover

Video
ID                                       : 1
Format                                   : HEVC
Format/Info                              : High Efficiency Video Coding
Format profile                           : Main [email protected]@High
Codec ID                                 : V_MPEGH/ISO/HEVC
Duration                                 : 1 h 37 min
Bit rate                                 : 5 009 kb/s
Width                                    : 1 920 pixels
Height                                   : 1 080 pixels
Display aspect ratio                     : 16:9
Frame rate mode                          : Constant
Frame rate                               : 23.976 (24000/1001) FPS
Color space                              : YUV
Chroma subsampling                       : 4:2:0
Bit depth                                : 10 bits
Bits/(Pixel*Frame)                       : 0.101
Stream size                              : 3.40 GiB (72%)
Writing library                          : x265 2.0M+9-g457336f+14:[Windows][GCC 5.3.0][64 bit] Yuuki 10bit
Encoding settings                        : wpp / ctu=32 / min-cu-size=8 / max-tu-size=32 / tu-intra-depth=1 / tu-inter-depth=1 / me=3 / subme=7 / merange=24 / rect / no-amp / max-merge=3 / temporal-mvp / no-early-skip / rskip / rdpenalty=2 / no-tskip / no-tskip-fast / no-strong-intra-smoothing / no-lossless / no-cu-lossless / no-constrained-intra / no-fast-intra / no-open-gop / no-temporal-layers / interlace=0 / keyint=480 / min-keyint=1 / scenecut=40 / rc-lookahead=50 / lookahead-slices=4 / bframes=6 / bframe-bias=0 / b-adapt=2 / ref=4 / limit-refs=3 / limit-modes / weightp / weightb / aq-mode=3 / qg-size=32 / aq-strength=0.60 / cbqpoffs=-2 / crqpoffs=-2 / rd=4 / psy-rd=0.90 / rdoq-level=2 / psy-rdoq=3.00 / no-rd-refine / signhide / deblock=-1:-1 / no-sao / no-sao-non-deblock / b-pyramid / no-cutree / no-intra-refresh / rc=crf / crf=21.2000 / qcomp=0.65 / qpmin=0 / qpmax=69 / qpstep=4 / vbv-maxrate=160000 / vbv-bufsize=160000 / crf-max=0.0 / ipratio=1.40 / pbratio=1.20
Language                                 : English
Default                                  : Yes
Forced                                   : No

Audio #1
ID                                       : 2
Format                                   :
Format/Info                              : Digital Theater Systems
Codec ID                                 : A_DTS
Duration                                 : 1 h 37 min
Bit rate mode                            : Constant
Bit rate                                 : 1 509 kb/s
Channel(s)                               : 6 channels
Channel positions                        : Front: L C R, Side: L R, LFE
Sampling rate                            : 48.0 kHz
Frame rate                               : 93.750 FPS (512 SPF)
Bit depth                                : 24 bits
Compression mode                         : Lossy
Stream size                              : 1.02 GiB (22%)
Title                                    : 5.1 @ 1536 kbps
Language                                 : Ukrainian
Default                                  : Yes
Forced                                   : Yes

Audio #2
ID                                       : 3
Format                                   : AC-3
Format/Info                              : Audio Coding 3
Codec ID                                 : A_AC3
Duration                                 : 1 h 37 min
Bit rate mode                            : Constant
Bit rate                                 : 448 kb/s
Channel(s)                               : 6 channels
Channel positions                        : Front: L C R, Side: L R, LFE
Sampling rate                            : 48.0 kHz
Frame rate                               : 31.250 FPS (1536 SPF)
Bit depth                                : 16 bits
Compression mode                         : Lossy
Stream size                              : 311 MiB (6%)
Title                                    : 5.1 @ 448 kbps
Language                                 : English
Service kind                             : Complete Main
Default                                  : No
Forced                                   : No

Text #1
ID                                       : 4
Format                                   : UTF-8
Codec ID                                 : S_TEXT/UTF8
Codec ID/Info                            : UTF-8 Plain Text
Duration                                 : 1 h 35 min
Bit rate                                 : 92 b/s
Count of elements                        : 1764
Stream size                              : 64.6 KiB (0%)
Title                                    : Full
Language                                 : English
Default                                  : No
Forced                                   : No

Text #2
ID                                       : 5
Format                                   : UTF-8
Codec ID                                 : S_TEXT/UTF8
Codec ID/Info                            : UTF-8 Plain Text
Duration                                 : 1 h 35 min
Bit rate                                 : 85 b/s
Count of elements                        : 1578
Stream size                              : 59.3 KiB (0%)
Title                                    : SDH
Language                                 : English
Default                                  : No
Forced                                   : No

Menu
00:00:00.000                             : en:Chapter 01
00:02:35.738                             : en:Chapter 02
00:06:50.243                             : en:Chapter 03
00:10:53.194                             : en:Chapter 04
00:13:33.187                             : en:Chapter 05
00:15:25.132                             : en:Chapter 06
00:17:03.313                             : en:Chapter 07
00:19:35.465                             : en:Chapter 08
00:21:35.293                             : en:Chapter 09
00:24:58.705                             : en:Chapter 10
00:27:08.543                             : en:Chapter 11
00:30:33.206                             : en:Chapter 12
00:35:00.264                             : en:Chapter 13
00:37:52.019                             : en:Chapter 14
00:40:17.998                             : en:Chapter 15
00:41:06.672                             : en:Chapter 16
00:42:30.422                             : en:Chapter 17
00:46:03.427                             : en:Chapter 18
00:48:41.710                             : en:Chapter 19
00:50:27.857                             : en:Chapter 20
00:55:06.678                             : en:Chapter 21
00:57:05.838                             : en:Chapter 22
01:00:41.345                             : en:Chapter 23
01:04:32.952                             : en:Chapter 24
01:10:36.815                             : en:Chapter 25
01:12:28.301                             : en:Chapter 26
01:14:09.861                             : en:Chapter 27
01:18:26.493                             : en:Chapter 28
01:26:49.328                             : en:Chapter 29
01:37:03.400                             : en:Chapter 30
Скріншоти




Джерело:
Особиста оцінка: 10 - без зайвих вагань рекомендую всім!
ЗАЛИШАЙТЕСЬ ЯКОМОГА ДОВШЕ НА РОЗДАЧІ!
ЗАВАНТАЖИВ САМ - ДАЙ ЗАВАНТАЖИТИ ІНШИМ


 Трекер:    Зареєстрований   

Завантажити / скачати мультфільм українською



відео для новачків



 Зареєстрований:   2018-08-29 10:18
 Розмір:   4.72 GB 
 Оцінка мультфільму:   9.8/10 (Голосів: 10)
   
merlin_soi 
Новенький


З нами з: 15.02.16
Востаннє: 27.02.20
Повідомлень: 13

2019-02-11 17:02  
Ніби й сідери є, але скачало 12% і зупинилось...
Ваш часовий пояс: GMT + 2 Години

Нова тема   Відповісти